  0
SECTION
  2
HEADER
  9
$ACADVER
  1
AC1015
  9
$ACADMAINTVER
 70
    20
  9
$DWGCODEPAGE
  3
ANSI_936
  9
$INSBASE
 10
0.0
 20
0.0
 30
0.0
  9
$EXTMIN
 10
1364.898918382991
 20
13.66333885907079
 30
0.0
  9
$EXTMAX
 10
1663.933596838105
 20
197.3676740260853
 30
0.0
  9
$LIMMIN
 10
0.0
 20
0.0
  9
$LIMMAX
 10
12.0
 20
9.0
  9
$ORTHOMODE
 70
     1
  9
$REGENMODE
 70
     1
  9
$FILLMODE
 70
     1
  9
$QTEXTMODE
 70
     0
  9
$MIRRTEXT
 70
     0
  9
$LTSCALE
 40
1.0
  9
$ATTMODE
 70
     1
  9
$TEXTSIZE
 40
0.2
  9
$TRACEWID
 40
0.05
  9
$TEXTSTYLE
  7
STANDARD
  9
$CLAYER
  8
标注线
  9
$CELTYPE
  6
ByLayer
  9
$CECOLOR
 62
   256
  9
$CELTSCALE
 40
1.0
  9
$DISPSILH
 70
     0
  9
$DIMSCALE
 40
1.0
  9
$DIMASZ
 40
0.65
  9
$DIMEXO
 40
0.88
  9
$DIMDLI
 40
0.015
  9
$DIMRND
 40
0.0
  9
$DIMDLE
 40
0.0
  9
$DIMEXE
 40
0.32
  9
$DIMTP
 40
0.0
  9
$DIMTM
 40
0.0
  9
$DIMTXT
 40
0.65
  9
$DIMCEN
 40
0.09
  9
$DIMTSZ
 40
0.0
  9
$DIMTOL
 70
     0
  9
$DIMLIM
 70
     0
  9
$DIMTIH
 70
     0
  9
$DIMTOH
 70
     0
  9
$DIMSE1
 70
     0
  9
$DIMSE2
 70
     0
  9
$DIMTAD
 70
     0
  9
$DIMZIN
 70
     8
  9
$DIMBLK
  1

  9
$DIMASO
 70
     1
  9
$DIMSHO
 70
     1
  9
$DIMPOST
  1
"
  9
$DIMAPOST
  1
"
  9
$DIMALT
 70
     0
  9
$DIMALTD
 70
     1
  9
$DIMALTF
 40
0.03937
  9
$DIMLFAC
 40
1.0
  9
$DIMTOFL
 70
     1
  9
$DIMTVP
 40
0.0
  9
$DIMTIX
 70
     0
  9
$DIMSOXD
 70
     0
  9
$DIMSAH
 70
     0
  9
$DIMBLK1
  1

  9
$DIMBLK2
  1

  9
$DIMSTYLE
  2
副本STANDARD
  9
$DIMCLRD
 70
   256
  9
$DIMCLRE
 70
   256
  9
$DIMCLRT
 70
   256
  9
$DIMTFAC
 40
1.0
  9
$DIMGAP
 40
0.3
  9
$DIMJUST
 70
     0
  9
$DIMSD1
 70
     0
  9
$DIMSD2
 70
     0
  9
$DIMTOLJ
 70
     1
  9
$DIMTZIN
 70
     8
  9
$DIMALTZ
 70
     8
  9
$DIMALTTZ
 70
     8
  9
$DIMUPT
 70
     0
  9
$DIMDEC
 70
     3
  9
$DIMTDEC
 70
     3
  9
$DIMALTU
 70
     2
  9
$DIMALTTD
 70
     1
  9
$DIMTXSTY
  7
STANDARD
  9
$DIMAUNIT
 70
     0
  9
$DIMADEC
 70
     0
  9
$DIMALTRND
 40
0.0
  9
$DIMAZIN
 70
     0
  9
$DIMDSEP
 70
    46
  9
$DIMATFIT
 70
     3
  9
$DIMFRAC
 70
     2
  9
$DIMLDRBLK
  1

  9
$DIMLUNIT
 70
     5
  9
$DIMLWD
 70
    -2
  9
$DIMLWE
 70
    -2
  9
$DIMTMOVE
 70
     2
  9
$LUNITS
 70
     2
  9
$LUPREC
 70
     4
  9
$SKETCHINC
 40
0.1
  9
$FILLETRAD
 40
0.0
  9
$AUNITS
 70
     0
  9
$AUPREC
 70
     0
  9
$MENU
  1
.
  9
$ELEVATION
 40
0.0
  9
$PELEVATION
 40
0.0
  9
$THICKNESS
 40
0.0
  9
$LIMCHECK
 70
     0
  9
$CHAMFERA
 40
0.0
  9
$CHAMFERB
 40
0.0
  9
$CHAMFERC
 40
0.0
  9
$CHAMFERD
 40
0.0
  9
$SKPOLY
 70
     0
  9
$TDCREATE
 40
2455434.724808658
  9
$TDUCREATE
 40
2455434.391475324
  9
$TDUPDATE
 40
2458649.633575706
  9
$TDUUPDATE
 40
2458649.300242373
  9
$TDINDWG
 40
0.8216292824
  9
$TDUSRTIMER
 40
0.8216115046
  9
$USRTIMER
 70
     1
  9
$ANGBASE
 50
0.0
  9
$ANGDIR
 70
     0
  9
$PDMODE
 70
     0
  9
$PDSIZE
 40
0.0
  9
$PLINEWID
 40
0.0
  9
$SPLFRAME
 70
     0
  9
$SPLINETYPE
 70
     6
  9
$SPLINESEGS
 70
     8
  9
$HANDSEED
  5
9559
  9
$SURFTAB1
 70
     6
  9
$SURFTAB2
 70
     6
  9
$SURFTYPE
 70
     6
  9
$SURFU
 70
     6
  9
$SURFV
 70
     6
  9
$UCSBASE
  2

  9
$UCSNAME
  2

  9
$UCSORG
 10
0.0
 20
0.0
 30
0.0
  9
$UCSXDIR
 10
1.0
 20
0.0
 30
0.0
  9
$UCSYDIR
 10
0.0
 20
1.0
 30
0.0
  9
$UCSORTHOREF
  2

  9
$UCSORTHOVIEW
 70
     0
  9
$UCSORGTOP
 10
0.0
 20
0.0
 30
0.0
  9
$UCSORGBOTTOM
 10
0.0
 20
0.0
 30
0.0
  9
$UCSORGLEFT
 10
0.0
 20
0.0
 30
0.0
  9
$UCSORGRIGHT
 10
0.0
 20
0.0
 30
0.0
  9
$UCSORGFRONT
 10
0.0
 20
0.0
 30
0.0
  9
$UCSORGBACK
 10
0.0
 20
0.0
 30
0.0
  9
$PUCSBASE
  2

  9
$PUCSNAME
  2

  9
$PUCSORG
 10
0.0
 20
0.0
 30
0.0
  9
$PUCSXDIR
 10
1.0
 20
0.0
 30
0.0
  9
$PUCSYDIR
 10
0.0
 20
1.0
 30
0.0
  9
$PUCSORTHOREF
  2

  9
$PUCSORTHOVIEW
 70
     0
  9
$PUCSORGTOP
 10
0.0
 20
0.0
 30
0.0
  9
$PUCSORGBOTTOM
 10
0.0
 20
0.0
 30
0.0
  9
$PUCSORGLEFT
 10
0.0
 20
0.0
 30
0.0
  9
$PUCSORGRIGHT
 10
0.0
 20
0.0
 30
0.0
  9
$PUCSORGFRONT
 10
0.0
 20
0.0
 30
0.0
  9
$PUCSORGBACK
 10
0.0
 20
0.0
 30
0.0
  9
$USERI1
 70
     0
  9
$USERI2
 70
     0
  9
$USERI3
 70
     0
  9
$USERI4
 70
     0
  9
$USERI5
 70
     0
  9
$USERR1
 40
0.0
  9
$USERR2
 40
0.0
  9
$USERR3
 40
0.0
  9
$USERR4
 40
0.0
  9
$USERR5
 40
2.5
  9
$WORLDVIEW
 70
     1
  9
$SHADEDGE
 70
     3
  9
$SHADEDIF
 70
    70
  9
$TILEMODE
 70
     1
  9
$MAXACTVP
 70
    64
  9
$PINSBASE
 10
0.0
 20
0.0
 30
0.0
  9
$PLIMCHECK
 70
     0
  9
$PEXTMIN
 10
1.000000000000000E+20
 20
1.000000000000000E+20
 30
1.000000000000000E+20
  9
$PEXTMAX
 10
-1.000000000000000E+20
 20
-1.000000000000000E+20
 30
-1.000000000000000E+20
  9
$PLIMMIN
 10
0.0
 20
0.0
  9
$PLIMMAX
 10
12.0
 20
9.0
  9
$UNITMODE
 70
     0
  9
$VISRETAIN
 70
     1
  9
$PLINEGEN
 70
     0
  9
$PSLTSCALE
 70
     1
  9
$TREEDEPTH
 70
  3020
  9
$CMLSTYLE
  2
Standard
  9
$CMLJUST
 70
     0
  9
$CMLSCALE
 40
1.0
  9
$PROXYGRAPHICS
 70
     1
  9
$MEASUREMENT
 70
     0
  9
$CELWEIGHT
370
    -1
  9
$ENDCAPS
280
     0
  9
$JOINSTYLE
280
     0
  9
$LWDISPLAY
290
     0
  9
$INSUNITS
 70
     0
  9
$HYPERLINKBASE
  1

  9
$STYLESHEET
  1

  9
$XEDIT
290
     1
  9
$CEPSNTYPE
380
     0
  9
$PSTYLEMODE
290
     1
  9
$FINGERPRINTGUID
  2
{7BAC09DB-C4D0-41DB-8C07-4C6808ADD930}
  9
$VERSIONGUID
  2
{2C8F5C64-C528-400F-8F84-B02D245A1C63}
  9
$EXTNAMES
290
     1
  9
$PSVPSCALE
 40
0.0
  9
$OLESTARTUP
290
     0
  0
ENDSEC
  0
SECTION
  2
CLASSES
  0
CLASS
  1
ACDBDICTIONARYWDFLT
  2
AcDbDictionaryWithDefault
  3
ObjectDBX Classes
 90
        0
280
     0
281
     0
  0
CLASS
  1
MATERIAL
  2
AcDbMaterial
  3
ObjectDBX Classes
 90
     1153
280
     0
281
     0
  0
CLASS
  1
VISUALSTYLE
  2
AcDbVisualStyle
  3
ObjectDBX Classes
 90
     4095
280
     0
281
     0
  0
CLASS
  1
SCALE
  2
AcDbScale
  3
ObjectDBX Classes
 90
     1153
280
     0
281
     0
  0
CLASS
  1
TABLESTYLE
  2
AcDbTableStyle
  3
ObjectDBX Classes
 90
     4095
280
     0
281
     0
  0
CLASS
  1
MLEADERSTYLE
  2
AcDbMLeaderStyle
  3
ACDB_MLEADERSTYLE_CLASS
 90
     4095
280
     0
281
     0
  0
CLASS
  1
VLO-VL
  2
vlo_VL
  3
VL|AutoLISP based application
 90
      129
280
     0
281
     0
  0
CLASS
  1
DICTIONARYVAR
  2
AcDbDictionaryVar
  3
ObjectDBX Classes
 90
        0
280
     0
281
     0
  0
CLASS
  1
CELLSTYLEMAP
  2
AcDbCellStyleMap
  3
ObjectDBX Classes
 90
     1152
280
     0
281
     0
  0
CLASS
  1
DIMASSOC
  2
AcDbDimAssoc
  3
"AcDbDimAssoc|Product Desc:     AcDim ARX App For Dimension|Company:          Autodesk, Inc.|WEB Address:      www.autodesk.com"
 90
        0
280
     0
281
     0
  0
CLASS
  1
SORTENTSTABLE
  2
AcDbSortentsTable
  3
ObjectDBX Classes
 90
        0
280
     0
281
     0
  0
CLASS
  1
ACDBPLACEHOLDER
  2
AcDbPlaceHolder
  3
ObjectDBX Classes
 90
        0
280
     0
281
     0
  0
CLASS
  1
LAYOUT
  2
AcDbLayout
  3
ObjectDBX Classes
 90
        0
280
     0
281
     0
  0
CLASS
  1
IMAGEDEF
  2
AcDbRasterImageDef
  3
ISM
 90
        0
280
     0
281
     0
  0
CLASS
  1
RASTERVARIABLES
  2
AcDbRasterVariables
  3
ISM
 90
        0
280
     0
281
     0
  0
ENDSEC
  0
SECTION
  2
TABLES
  0
TABLE
  2
VPORT
  5
5F02
330
0
100
AcDbSymbolTable
 70
     1
  0
VPORT
  5
5F73
330
5F02
100
AcDbSymbolTableRecord
100
AcDbViewportTableRecord
  2
*ACTIVE
 70
     0
 10
0.0
 20
0.0
 11
1.0
 21
1.0
 12
1594.835869579073
 22
162.9887794243175
 13
0.0
 23
0.0
 14
0.5
 24
0.5
 15
0.5
 25
0.5
 16
0.0
 26
0.0
 36
1.0
 17
0.0
 27
0.0
 37
0.0
 40
24.13133852755013
 41
1.622972972972972
 42
50.0
 43
0.0
 44
0.0
 50
0.0
 51
0.0
 71
     0
 72
  1000
 73
     1
 74
     3
 75
     0
 76
     0
 77
     0
 78
     0
281
     0
 65
     1
110
0.0
120
0.0
130
0.0
111
1.0
121
0.0
131
0.0
112
0.0
122
1.0
132
0.0
 79
     0
146
0.0
  0
ENDTAB
  0
TABLE
  2
LTYPE
  5
5EFF
330
0
100
AcDbSymbolTable
 70
     5
  0
LTYPE
  5
5F5C
330
5EFF
100
AcDbSymbolTableRecord
100
AcDbLinetypeTableRecord
  2
ByBlock
 70
     0
  3

 72
    65
 73
     0
 40
0.0
  0
LTYPE
  5
5F5D
330
5EFF
100
AcDbSymbolTableRecord
100
AcDbLinetypeTableRecord
  2
ByLayer
 70
     0
  3

 72
    65
 73
     0
 40
0.0
  0
LTYPE
  5
5F5E
330
5EFF
100
AcDbSymbolTableRecord
100
AcDbLinetypeTableRecord
  2
CONTINUOUS
 70
     0
  3
Solid line
 72
    65
 73
     0
 40
0.0
  0
LTYPE
  5
5F74
330
5EFF
100
AcDbSymbolTableRecord
100
AcDbLinetypeTableRecord
  2
CENTER2
 70
     0
  3
Center (.5x) ___ _ ___ _ ___ _ ___ _ ___ _ ___
 72
    65
 73
     4
 40
28.575
 49
19.05
 74
     0
 49
-3.174999999999998
 74
     0
 49
3.174999999999998
 74
     0
 49
-3.174999999999998
 74
     0
  0
LTYPE
  5
5F75
330
5EFF
100
AcDbSymbolTableRecord
100
AcDbLinetypeTableRecord
  2
HIDDEN2
 70
     0
  3
Hidden (.5x) _ _ _ _ _ _ _ _ _ _ _ _ _ _ _ _ _
 72
    65
 73
     2
 40
4.762499999999998
 49
3.174999999999998
 74
     0
 49
-1.587499999999999
 74
     0
  0
LTYPE
  5
88C9
330
5EFF
100
AcDbSymbolTableRecord
100
AcDbLinetypeTableRecord
  2
ACAD_ISO02W100
 70
     0
  3
ISO dash __ __ __ __ __ __ __ __ __ __ __ __ __
 72
    65
 73
     2
 40
15.0
 49
12.0
 74
     0
 49
-3.0
 74
     0
  0
ENDTAB
  0
TABLE
  2
LAYER
  5
5EFC
102
{ACAD_XDICTIONARY
360
61B7
102
}
330
0
100
AcDbSymbolTable
 70
     9
  0
LAYER
  5
5F56
102
{ACAD_XDICTIONARY
360
60F4
102
}
330
5EFC
100
AcDbSymbolTableRecord
100
AcDbLayerTableRecord
  2
0
 70
     0
 62
     7
  6
CONTINUOUS
370
    -3
390
5F09
  0
LAYER
  5
5F72
102
{ACAD_XDICTIONARY
360
60F6
102
}
330
5EFC
100
AcDbSymbolTableRecord
100
AcDbLayerTableRecord
  2
标注
 70
     0
 62
    80
  6
CONTINUOUS
370
    -3
390
5F09
  0
LAYER
  5
5F7D
102
{ACAD_XDICTIONARY
360
60F8
102
}
330
5EFC
100
AcDbSymbolTableRecord
100
AcDbLayerTableRecord
  2
中心线
 70
     0
 62
     1
  6
CENTER2
370
    -3
390
5F09
  0
LAYER
  5
5F7E
102
{ACAD_XDICTIONARY
360
60FA
102
}
330
5EFC
100
AcDbSymbolTableRecord
100
AcDbLayerTableRecord
  2
虚线
 70
     0
 62
     4
  6
HIDDEN2
370
    -3
390
5F09
  0
LAYER
  5
5F7F
330
5EFC
100
AcDbSymbolTableRecord
100
AcDbLayerTableRecord
  2
DEFPOINTS
 70
     0
 62
     7
  6
CONTINUOUS
290
     0
370
    -3
390
5F09
  0
LAYER
  5
5F80
102
{ACAD_XDICTIONARY
360
60FC
102
}
330
5EFC
100
AcDbSymbolTableRecord
100
AcDbLayerTableRecord
  2
细实线
 70
     0
 62
     7
  6
CONTINUOUS
370
    -3
390
5F09
  0
LAYER
  5
6B9C
102
{ACAD_XDICTIONARY
360
6B9D
102
}
330
5EFC
100
AcDbSymbolTableRecord
100
AcDbLayerTableRecord
  2
截面层
 70
     0
 62
     6
  6
CONTINUOUS
370
    13
390
5F09
  0
LAYER
  5
776F
330
5EFC
100
AcDbSymbolTableRecord
100
AcDbLayerTableRecord
  2
标注线
 70
     0
 62
     3
  6
CONTINUOUS
370
     9
390
5F09
  0
LAYER
  5
901B
330
5EFC
100
AcDbSymbolTableRecord
100
AcDbLayerTableRecord
  2
剖面线
 70
     0
 62
   200
  6
CONTINUOUS
370
    20
390
5F09
  0
ENDTAB
  0
TABLE
  2
STYLE
  5
5EFD
330
0
100
AcDbSymbolTable
 70
     2
  0
STYLE
  5
5F57
330
5EFD
100
AcDbSymbolTableRecord
100
AcDbTextStyleTableRecord
  2
STANDARD
 70
     0
 40
0.0
 41
1.0
 50
0.0
 71
     0
 42
0.2
  3
arial.ttf
  4

1001
ACAD
1000
Arial
1071
       34
  0
STYLE
  5
7201
330
5EFD
100
AcDbSymbolTableRecord
100
AcDbTextStyleTableRecord
  2
Arial
 70
     0
 40
0.0
 41
1.0
 50
0.0
 71
     0
 42
0.2
  3
arial.ttf
  4

1001
ACAD
1000
Arial
1071
       34
  0
ENDTAB
  0
TABLE
  2
VIEW
  5
5F00
330
0
100
AcDbSymbolTable
 70
     0
  0
ENDTAB
  0
TABLE
  2
UCS
  5
5F01
330
0
100
AcDbSymbolTable
 70
     0
  0
ENDTAB
  0
TABLE
  2
APPID
  5
5F03
330
0
100
AcDbSymbolTable
 70
    29
  0
APPID
  5
5F58
330
5F03
100
AcDbSymbolTableRecord
100
AcDbRegAppTableRecord
  2
ACAD
 70
     0
  0
APPID
  5
5F5F
330
5F03
100
AcDbSymbolTableRecord
100
AcDbRegAppTableRecord
  2
ACADANNOTATIVE
 70
     0
  0
APPID
  5
5F69
330
5F03
100
AcDbSymbolTableRecord
100
AcDbRegAppTableRecord
  2
ACAD_MLEADERVER
 70
     0
  0
APPID
  5
5F84
330
5F03
100
AcDbSymbolTableRecord
100
AcDbRegAppTableRecord
  2
ACAECLAYERSTANDARD
 70
     0
  0
APPID
  5
5F85
330
5F03
100
AcDbSymbolTableRecord
100
AcDbRegAppTableRecord
  2
ACAD_DSTYLE_DIMEXT_LENGTH
 70
     0
  0
APPID
  5
5F86
330
5F03
100
AcDbSymbolTableRecord
100
AcDbRegAppTableRecord
  2
ACAD_DSTYLE_DIMEXT_ENABLED
 70
     0
  0
APPID
  5
5F87
330
5F03
100
AcDbSymbolTableRecord
100
AcDbRegAppTableRecord
  2
ACAD_DSTYLE_DIMJOGGED_JOGA
 70
     0
  0
APPID
  5
5F88
330
5F03
100
AcDbSymbolTableRecord
100
AcDbRegAppTableRecord
  2
ACAD_DSTYLE_DIMARC_LENGTH_
 70
     0
  0
APPID
  5
5F89
330
5F03
100
AcDbSymbolTableRecord
100
AcDbRegAppTableRecord
  2
ACAD_PSEXT
 70
     0
  0
APPID
  5
5F8A
330
5F03
100
AcDbSymbolTableRecord
100
AcDbRegAppTableRecord
  2
MCAD_NO_VIS
 70
     0
  0
APPID
  5
5F8B
330
5F03
100
AcDbSymbolTableRecord
100
AcDbRegAppTableRecord
  2
ACAD_TEMP_GRAPHIC
 70
     0
  0
APPID
  5
5F8C
330
5F03
100
AcDbSymbolTableRecord
100
AcDbRegAppTableRecord
  2
AD_DRAW
 70
     0
  0
APPID
  5
5F8D
330
5F03
100
AcDbSymbolTableRecord
100
AcDbRegAppTableRecord
  2
ACATTRIBSERVICES
 70
     0
  0
APPID
  5
5F8E
330
5F03
100
AcDbSymbolTableRecord
100
AcDbRegAppTableRecord
  2
DESIGNERASSEMBLIES
 70
     0
  0
APPID
  5
5F8F
330
5F03
100
AcDbSymbolTableRecord
100
AcDbRegAppTableRecord
  2
ACADM_DIM_EDIT
 70
     0
  0
APPID
  5
5F90
330
5F03
100
AcDbSymbolTableRecord
100
AcDbRegAppTableRecord
  2
AMDT_DM_ADJ
 70
     0
  0
APPID
  5
5F91
330
5F03
100
AcDbSymbolTableRecord
100
AcDbRegAppTableRecord
  2
ACAD_DSTYLE_DIMJAG
 70
     0
  0
APPID
  5
5F92
330
5F03
100
AcDbSymbolTableRecord
100
AcDbRegAppTableRecord
  2
ACAD_DSTYLE_DIMBREAK
 70
     0
  0
APPID
  5
5F93
330
5F03
100
AcDbSymbolTableRecord
100
AcDbRegAppTableRecord
  2
ACAD_DSTYLE_DIMTALN
 70
     0
  0
APPID
  5
5F94
330
5F03
100
AcDbSymbolTableRecord
100
AcDbRegAppTableRecord
  2
GENIUS_GENODEF_13
 70
     0
  0
APPID
  5
5F95
330
5F03
100
AcDbSymbolTableRecord
100
AcDbRegAppTableRecord
  2
GENIUS_GENOBJ-N-FIL_13
 70
     0
  0
APPID
  5
5F96
330
5F03
100
AcDbSymbolTableRecord
100
AcDbRegAppTableRecord
  2
ACAD_EXEMPT_FROM_CAD_STANDARDS
 70
     0
  0
APPID
  5
5F97
330
5F03
100
AcDbSymbolTableRecord
100
AcDbRegAppTableRecord
  2
ACAD_DSTYLE_DIM_LINETYPE
 70
     0
  0
APPID
  5
5F98
330
5F03
100
AcDbSymbolTableRecord
100
AcDbRegAppTableRecord
  2
ACAD_DSTYLE_DIM_EXT1_LINETYPE
 70
     0
  0
APPID
  5
5F99
330
5F03
100
AcDbSymbolTableRecord
100
AcDbRegAppTableRecord
  2
ACAD_DSTYLE_DIM_EXT2_LINETYPE
 70
     0
  0
APPID
  5
5F9A
330
5F03
100
AcDbSymbolTableRecord
100
AcDbRegAppTableRecord
  2
ACAD_DSTYLE_DIMRADIAL_EXTENSION
 70
     0
  0
APPID
  5
6488
330
5F03
100
AcDbSymbolTableRecord
100
AcDbRegAppTableRecord
  2
AcadAnnoPO
 70
     0
  0
APPID
  5
7772
330
5F03
100
AcDbSymbolTableRecord
100
AcDbRegAppTableRecord
  2
ACAD_DSTYLE_DIMJOGGED_JOGANGLE_SYMBOL
 70
     0
  0
APPID
  5
901E
330
5F03
100
AcDbSymbolTableRecord
100
AcDbRegAppTableRecord
  2
ACAD_NAV_VCDISPLAY
 70
     0
  0
ENDTAB
  0
TABLE
  2
DIMSTYLE
  5
5F04
330
0
100
AcDbSymbolTable
 70
    10
100
AcDbDimStyleTable
 71
     2
340
5F9B
340
5F59
  0
DIMSTYLE
105
5F59
330
5F04
100
AcDbSymbolTableRecord
100
AcDbDimStyleTableRecord
  2
STANDARD
 70
     0
 41
0.65
 73
     0
 74
     0
140
0.65
176
     3
177
     3
178
     3
271
     3
272
     3
276
     2
277
     5
279
     2
284
     8
285
     8
286
     8
340
5F57
371
    13
372
    13
1001
ACAD_DSTYLE_DIMJAG
1070
   388
1040
1.5
1001
ACAD_DSTYLE_DIMTALN
1070
   392
1070
     0
1001
ACAD_DSTYLE_DIM_LINETYPE
1070
   380
1005
5F5E
1001
ACAD_DSTYLE_DIM_EXT1_LINETYPE
1070
   381
1005
5F5E
1001
ACAD_DSTYLE_DIM_EXT2_LINETYPE
1070
   382
1005
5F5E
  0
DIMSTYLE
105
5F9B
102
{ACAD_REACTORS
330
9372
330
936F
330
94E4
330
94EE
102
}
330
5F04
100
AcDbSymbolTableRecord
100
AcDbDimStyleTableRecord
  2
副本STANDARD
 70
     0
  3
"
  4
"
 41
0.65
 42
0.88
 43
0.015
 44
0.32
 73
     0
 74
     0
 78
     8
140
0.65
143
0.03937
147
0.3
171
     1
172
     1
176
   256
177
   256
178
   256
271
     3
272
     3
274
     1
276
     2
277
     5
279
     2
284
     8
285
     8
286
     8
340
5F57
1001
ACAD_DSTYLE_DIMJAG
1070
   388
1040
1.5
1001
ACAD_DSTYLE_DIMTALN
1070
   392
1070
     0
  0
DIMSTYLE
105
848C
102
{ACAD_REACTORS
330
93A8
330
935D
330
93BD
330
93C0
330
93AE
330
93AB
330
9381
102
}
330
5F04
100
AcDbSymbolTableRecord
100
AcDbDimStyleTableRecord
  2
副本Standard$0
 70
     0
  4
"
 41
16.0
 42
20.0
 44
7.0
 73
     0
 74
     0
 78
     8
 79
     2
140
20.0
143
0.03937
147
5.0
171
     3
172
     1
176
   256
177
   256
178
   256
179
     1
271
     1
272
     1
273
     7
274
     3
278
    44
340
5F57
1001
ACAD_DSTYLE_DIMBREAK
1070
   391
1040
0.125
1001
ACAD_DSTYLE_DIMJAG
1070
   388
1040
1.5
  0
DIMSTYLE
105
8C9C
102
{ACAD_REACTORS
330
8CA5
330
8CD3
330
8CD4
330
8CD5
330
8CD6
330
8CD7
330
8CF5
330
8CF6
330
8CF9
330
8D13
330
8D16
102
}
330
5F04
100
AcDbSymbolTableRecord
100
AcDbDimStyleTableRecord
  2
中14+
 70
     0
  4
"
 41
14.0
 42
10.0
 43
1.0
 44
2.0
 73
     0
 74
     0
 78
     8
140
14.0
141
2.0
143
0.03937007874016
147
5.0
171
     3
172
     1
177
   256
179
     1
271
     1
272
     1
273
     7
274
     3
278
    44
283
     0
284
     8
340
5F57
1001
ACAD_DSTYLE_DIMBREAK
1070
   391
1040
0.2
1001
ACAD_DSTYLE_DIMJAG
1070
   388
1040
1.5
1001
ACAD_DSTYLE_DIMTALN
1070
   392
1070
     0
  0
DIMSTYLE
105
8C9D
330
5F04
100
AcDbSymbolTableRecord
100
AcDbDimStyleTableRecord
  2
毫米英寸Standard
 70
     0
  3
mm
  4
"
 41
14.0
 42
20.0
 44
8.0
 73
     0
 74
     0
 78
     8
 79
     2
140
14.0
143
0.03937
147
8.0
170
     1
171
     3
172
     1
176
   256
177
   256
178
   256
179
     1
271
     1
272
     1
273
     7
274
     3
278
    44
340
5F57
1001
ACAD_DSTYLE_DIMBREAK
1070
   391
1040
0.125
1001
ACAD_DSTYLE_DIMJAG
1070
   388
1040
1.5
1001
ACAD_DSTYLE_DIMTALN
1070
   392
1070
     0
  0
DIMSTYLE
105
8C9E
330
5F04
100
AcDbSymbolTableRecord
100
AcDbDimStyleTableRecord
  2
英寸
 70
     0
  3
"
  4
"
 41
15.0
 42
0.625
 43
3.75
 44
1.25
 73
     0
 74
     0
 78
     8
140
14.0
141
15.0
143
0.03937007874016
144
0.03937007874
147
0.625
171
     3
172
     1
176
     3
177
     3
178
     3
271
     3
272
     3
273
     7
274
     3
276
     2
277
     5
278
    44
283
     0
284
     8
340
7201
371
     9
372
     9
1001
ACAD_DSTYLE_DIMBREAK
1070
   391
1040
3.75
1001
ACAD_DSTYLE_DIMJAG
1070
   388
1040
1.5
1001
ACAD_DSTYLE_DIMTALN
1070
   392
1070
     0
1001
ACAD_DSTYLE_DIM_LINETYPE
1070
   380
1005
5F5E
1001
ACAD_DSTYLE_DIM_EXT1_LINETYPE
1070
   381
1005
5F5E
1001
ACAD_DSTYLE_DIM_EXT2_LINETYPE
1070
   382
1005
5F5E
  0
DIMSTYLE
105
8C9F
330
5F04
100
AcDbSymbolTableRecord
100
AcDbDimStyleTableRecord
  2
副本 中14+
 70
     0
  4
"
 41
14.0
 42
10.0
 43
1.0
 44
2.0
 73
     0
 74
     0
 78
     8
140
14.0
141
2.0
143
0.03937007874016
147
5.0
171
     3
172
     1
176
   256
177
   256
178
   256
179
     1
271
     0
272
     0
273
     7
274
     3
278
    44
283
     0
284
     8
340
7201
1001
ACAD_DSTYLE_DIMBREAK
1070
   391
1040
0.2
1001
ACAD_DSTYLE_DIMJAG
1070
   388
1040
1.5
1001
ACAD_DSTYLE_DIMTALN
1070
   392
1070
     0
  0
DIMSTYLE
105
901C
330
5F04
100
AcDbSymbolTableRecord
100
AcDbDimStyleTableRecord
  2
毫米英寸10+
 70
     0
  3
mm
  4
"
 41
10.0
 42
12.0
 44
5.0
 73
     0
 74
     0
 78
     8
 79
     2
140
10.0
143
0.03937
147
5.0
170
     1
171
     4
172
     1
176
   256
177
   256
178
   256
179
     1
271
     1
272
     1
273
     7
274
     4
278
    44
340
5F57
1001
ACAD_DSTYLE_DIMBREAK
1070
   391
1040
0.125
1001
ACAD_DSTYLE_DIMJAG
1070
   388
1040
1.5
1001
ACAD_DSTYLE_DIMTALN
1070
   392
1070
     0
  0
DIMSTYLE
105
901D
102
{ACAD_REACTORS
330
903A
330
9055
330
907A
330
907D
330
9080
102
}
330
5F04
100
AcDbSymbolTableRecord
100
AcDbDimStyleTableRecord
  2
中12+
 70
     0
  4
"
 41
12.0
 42
9.0
 43
1.0
 44
2.0
 73
     0
 74
     0
 78
     8
140
12.0
141
2.0
143
0.03937007874016
147
5.0
171
     3
172
     1
179
     1
271
     1
272
     1
273
     7
274
     3
278
    44
283
     0
284
     8
340
5F57
1001
ACAD_DSTYLE_DIMBREAK
1070
   391
1040
0.2
1001
ACAD_DSTYLE_DIMJAG
1070
   388
1040
1.5
1001
ACAD_DSTYLE_DIMTALN
1070
   392
1070
     0
  0
ENDTAB
  0
TABLE
  2
BLOCK_RECORD
  5
5EFB
330
0
100
AcDbSymbolTable
 70
    80
  0
BLOCK_RECORD
  5
5F6E
102
{ACAD_XDICTIONARY
360
654F
102
}
330
5EFB
100
AcDbSymbolTableRecord
100
AcDbBlockTableRecord
  2
*Model_Space
340
5F71
  0
BLOCK_RECORD
  5
5F6A
330
5EFB
100
AcDbSymbolTableRecord
100
AcDbBlockTableRecord
  2
*Paper_Space
340
5F6D
  0
BLOCK_RECORD
  5
860F
330
5EFB
100
AcDbSymbolTableRecord
100
AcDbBlockTableRecord
  2
*D0
340
0
  0
BLOCK_RECORD
  5
861D
330
5EFB
100
AcDbSymbolTableRecord
100
AcDbBlockTableRecord
  2
*D1
340
0
  0
BLOCK_RECORD
  5
862A
330
5EFB
100
AcDbSymbolTableRecord
100
AcDbBlockTableRecord
  2
*D2
340
0
  0
BLOCK_RECORD
  5
8637
330
5EFB
100
AcDbSymbolTableRecord
100
AcDbBlockTableRecord
  2
*D3
340
0
  0
BLOCK_RECORD
  5
8644
330
5EFB
100
AcDbSymbolTableRecord
100
AcDbBlockTableRecord
  2
*D4
340
0
  0
BLOCK_RECORD
  5
8651
330
5EFB
100
AcDbSymbolTableRecord
100
AcDbBlockTableRecord
  2
*D5
340
0
  0
BLOCK_RECORD
  5
865F
330
5EFB
100
AcDbSymbolTableRecord
100
AcDbBlockTableRecord
  2
*D6
340
0
  0
BLOCK_RECORD
  5
8677
330
5EFB
100
AcDbSymbolTableRecord
100
AcDbBlockTableRecord
  2
*D7
340
0
  0
BLOCK_RECORD
  5
8685
330
5EFB
100
AcDbSymbolTableRecord
100
AcDbBlockTableRecord
  2
*D8
340
0
  0
BLOCK_RECORD
  5
86BA
330
5EFB
100
AcDbSymbolTableRecord
100
AcDbBlockTableRecord
  2
*D9
340
0
  0
BLOCK_RECORD
  5
8968
330
5EFB
100
AcDbSymbolTableRecord
100
AcDbBlockTableRecord
  2
*D10
340
0
  0
BLOCK_RECORD
  5
8975
330
5EFB
100
AcDbSymbolTableRecord
100
AcDbBlockTableRecord
  2
*D11
340
0
  0
BLOCK_RECORD
  5
8982
330
5EFB
100
AcDbSymbolTableRecord
100
AcDbBlockTableRecord
  2
*D12
340
0
  0
BLOCK_RECORD
  5
898F
330
5EFB
100
AcDbSymbolTableRecord
100
AcDbBlockTableRecord
  2
*D13
340
0
  0
BLOCK_RECORD
  5
89C4
330
5EFB
100
AcDbSymbolTableRecord
100
AcDbBlockTableRecord
  2
*D14
340
0
  0
BLOCK_RECORD
  5
89D1
330
5EFB
100
AcDbSymbolTableRecord
100
AcDbBlockTableRecord
  2
*D15
340
0
  0
BLOCK_RECORD
  5
8A43
330
5EFB
100
AcDbSymbolTableRecord
100
AcDbBlockTableRecord
  2
*D16
340
0
  0
BLOCK_RECORD
  5
8C01
330
5EFB
100
AcDbSymbolTableRecord
100
AcDbBlockTableRecord
  2
*D18
340
0
  0
BLOCK_RECORD
  5
8C0F
330
5EFB
100
AcDbSymbolTableRecord
100
AcDbBlockTableRecord
  2
*D19
340
0
  0
BLOCK_RECORD
  5
8C1D
330
5EFB
100
AcDbSymbolTableRecord
100
AcDbBlockTableRecord
  2
*D20
340
0
  0
BLOCK_RECORD
  5
8C2B
330
5EFB
100
AcDbSymbolTableRecord
100
AcDbBlockTableRecord
  2
*D21
340
0
  0
BLOCK_RECORD
  5
8C39
330
5EFB
100
AcDbSymbolTableRecord
100
AcDbBlockTableRecord
  2
*D22
340
0
  0
BLOCK_RECORD
  5
8C48
330
5EFB
100
AcDbSymbolTableRecord
100
AcDbBlockTableRecord
  2
*D23
340
0
  0
BLOCK_RECORD
  5
8C56
330
5EFB
100
AcDbSymbolTableRecord
100
AcDbBlockTableRecord
  2
*D24
340
0
  0
BLOCK_RECORD
  5
8C64
330
5EFB
100
AcDbSymbolTableRecord
100
AcDbBlockTableRecord
  2
*D25
340
0
  0
BLOCK_RECORD
  5
8C72
330
5EFB
100
AcDbSymbolTableRecord
100
AcDbBlockTableRecord
  2
*D26
340
0
  0
BLOCK_RECORD
  5
8C80
330
5EFB
100
AcDbSymbolTableRecord
100
AcDbBlockTableRecord
  2
*D27
340
0
  0
BLOCK_RECORD
  5
8C8E
330
5EFB
100
AcDbSymbolTableRecord
100
AcDbBlockTableRecord
  2
*D28
340
0
  0
BLOCK_RECORD
  5
8D96
330
5EFB
100
AcDbSymbolTableRecord
100
AcDbBlockTableRecord
  2
*D30
340
0
  0
BLOCK_RECORD
  5
8DA4
330
5EFB
100
AcDbSymbolTableRecord
100
AcDbBlockTableRecord
  2
*D31
340
0
  0
BLOCK_RECORD
  5
8DB2
330
5EFB
100
AcDbSymbolTableRecord
100
AcDbBlockTableRecord
  2
*D32
340
0
  0
BLOCK_RECORD
  5
8DC0
330
5EFB
100
AcDbSymbolTableRecord
100
AcDbBlockTableRecord
  2
*D33
340
0
  0
BLOCK_RECORD
  5
8DCE
330
5EFB
100
AcDbSymbolTableRecord
100
AcDbBlockTableRecord
  2
*D34
340
0
  0
BLOCK_RECORD
  5
8DDC
330
5EFB
100
AcDbSymbolTableRecord
100
AcDbBlockTableRecord
  2
*D35
340
0
  0
BLOCK_RECORD
  5
8DEA
330
5EFB
100
AcDbSymbolTableRecord
100
AcDbBlockTableRecord
  2
*D36
340
0
  0
BLOCK_RECORD
  5
8DF8
330
5EFB
100
AcDbSymbolTableRecord
100
AcDbBlockTableRecord
  2
*D37
340
0
  0
BLOCK_RECORD
  5
8E11
330
5EFB
100
AcDbSymbolTableRecord
100
AcDbBlockTableRecord
  2
*D38
340
0
  0
BLOCK_RECORD
  5
8E2A
330
5EFB
100
AcDbSymbolTableRecord
100
AcDbBlockTableRecord
  2
*D39
340
0
  0
BLOCK_RECORD
  5
8E38
330
5EFB
100
AcDbSymbolTableRecord
100
AcDbBlockTableRecord
  2
*D40
340
0
  0
BLOCK_RECORD
  5
8F9F
330
5EFB
100
AcDbSymbolTableRecord
100
AcDbBlockTableRecord
  2
U
340
0
310
2800000020000000200000000100080000000000000400000000000000000000000000000000000000000000000080000080000000808000800000008000800080800000C0C0C000C0DCC000F0CAA6000020400000206000002080000020A0000020C0000020E00000400000004020000040400000406000004080000040A0
310
000040C0000040E00000600000006020000060400000606000006080000060A0000060C0000060E00000800000008020000080400000806000008080000080A0000080C0000080E00000A0000000A0200000A0400000A0600000A0800000A0A00000A0C00000A0E00000C0000000C0200000C0400000C0600000C0800000C0
310
A00000C0C00000C0E00000E0000000E0200000E0400000E0600000E0800000E0A00000E0C00000E0E00040000000400020004000400040006000400080004000A0004000C0004000E00040200000402020004020400040206000402080004020A0004020C0004020E000404000004040200040404000404060004040800040
310
40A0004040C0004040E00040600000406020004060400040606000406080004060A0004060C0004060E00040800000408020004080400040806000408080004080A0004080C0004080E00040A0000040A0200040A0400040A0600040A0800040A0A00040A0C00040A0E00040C0000040C0200040C0400040C0600040C08000
310
40C0A00040C0C00040C0E00040E0000040E0200040E0400040E0600040E0800040E0A00040E0C00040E0E00080000000800020008000400080006000800080008000A0008000C0008000E00080200000802020008020400080206000802080008020A0008020C0008020E00080400000804020008040400080406000804080
310
008040A0008040C0008040E00080600000806020008060400080606000806080008060A0008060C0008060E00080800000808020008080400080806000808080008080A0008080C0008080E00080A0000080A0200080A0400080A0600080A0800080A0A00080A0C00080A0E00080C0000080C0200080C0400080C0600080C0
310
800080C0A00080C0C00080C0E00080E0000080E0200080E0400080E0600080E0800080E0A00080E0C00080E0E000C0000000C0002000C0004000C0006000C0008000C000A000C000C000C000E000C0200000C0202000C0204000C0206000C0208000C020A000C020C000C020E000C0400000C0402000C0404000C0406000C0
310
408000C040A000C040C000C040E000C0600000C0602000C0604000C0606000C0608000C060A000C060C000C060E000C0800000C0802000C0804000C0806000C0808000C080A000C080C000C080E000C0A00000C0A02000C0A04000C0A06000C0A08000C0A0A000C0A0C000C0A0E000C0C00000C0C02000C0C04000C0C06000
310
C0C08000C0C0A000F0FBFF00A4A0A000808080000000FF0000FF000000FFFF00FF000000FF00FF00FFFF0000FFFFFF000000000000000000000000000000000000000000000000000000000000000000000000000000C6C600000000000000000000000000000000C6C60000000000000000000000C6C6C6C6000000000000
310
0000000000000000C6C6C6C600000000000000000000C6C6C6C60000000000000000000000000000C6C6C6C600000000000000000000C6C6C6C6C6000000000000000000000000C6C6C6C6C600000000000000000000C6C6C6C6C6000000000000000000000000C6C6C6C6C600000000000000000000C6C6C6C6C600000000
310
0000000000000000C6C600C6C600000000000000000000C6C600C6C6C600000000000000000000C6C6C600C6C600000000000000000000C6C600C600C600000000000000000000C600C600C6C600000000000000000000C6C600C6C6000000000000000000000000C6C600C6C600000000000000000000C6C6000000000000
310
000000000000000000000000C6C600000000000000000000C6C6000000000000000000000000000000000000C6C600000000000000000000C6C6000000000000000000000000000000000000C6C600000000000000000000C6C6000000000000000000000000000000000000C6C600000000000000000000C6C60000000000
310
00000000000000000000000000C6C600000000000000000000C6C6000000000000000000000000000000000000C6C600000000000000000000C6C6000000000000000000000000000000000000C6C600000000000000000000C6C6000000000000000000000000000000000000C6C600000000000000000000C6C600000000
310
0000000000000000000000000000C6C600000000000000000000C6C6000000000000000000000000000000000000C6C600000000000000000000C6C6000000000000000000000000000000000000C6C600000000000000000000C6C6000000000000000000000000000000000000C6C600000000000000000000C6C6000000
310
000000000000000000000000000000C6C600000000000000000000C6C6000000000000000000000000000000000000C6C600000000000000000000C6C6000000000000000000000000000000000000C6C600000000000000000000C6C6000000000000000000000000000000000000C6C600000000000000000000C6C60000
310
00000000000000000000000000000000C6C600000000000000000000C6C6C600000000000000000000000000000000C6C6C600000000000000000000C6C6C6C6C6C6C6C6C6C6C6C6C6C6C6C6C6C6C6C6C6C60000000000000000000000C6C600C600C6C600C6C600C600C6C600C6C6C6C60000000000000000000000000000
310
C6C6C6C6C6C6C6C6C6C6C6C6C6C6C6C600000000000000000000000000000000000000000000000000000000000000000000000000000000
102
{BLKREFS
331
9078
331
9079
331
9321
331
9322
331
93A6
331
93A7
102
}
1001
ACAD
1000
DesignCenter Data
1002
{
1070
     1
1070
     1
1002
}
  0
BLOCK_RECORD
  5
8FB9
330
5EFB
100
AcDbSymbolTableRecord
100
AcDbBlockTableRecord
  2
*D42
340
0
  0
BLOCK_RECORD
  5
8FC7
330
5EFB
100
AcDbSymbolTableRecord
100
AcDbBlockTableRecord
  2
*D43
340
0
  0
BLOCK_RECORD
  5
8FD5
330
5EFB
100
AcDbSymbolTableRecord
100
AcDbBlockTableRecord
  2
*D44
340
0
  0
BLOCK_RECORD
  5
8FE3
330
5EFB
100
AcDbSymbolTableRecord
100
AcDbBlockTableRecord
  2
*D45
340
0
  0
BLOCK_RECORD
  5
8FF1
330
5EFB
100
AcDbSymbolTableRecord
100
AcDbBlockTableRecord
  2
*D46
340
0
  0
BLOCK_RECORD
  5
8FFF
330
5EFB
100
AcDbSymbolTableRecord
100
AcDbBlockTableRecord
  2
*D47
340
0
  0
BLOCK_RECORD
  5
900D
330
5EFB
100
AcDbSymbolTableRecord
100
AcDbBlockTableRecord
  2
*D48
340
0
  0
BLOCK_RECORD
  5
910F
330
5EFB
100
AcDbSymbolTableRecord
100
AcDbBlockTableRecord
  2
*D50
340
0
  0
BLOCK_RECORD
  5
911D
330
5EFB
100
AcDbSymbolTableRecord
100
AcDbBlockTableRecord
  2
*D51
340
0
  0
BLOCK_RECORD
  5
912B
330
5EFB
100
AcDbSymbolTableRecord
100
AcDbBlockTableRecord
  2
*D52
340
0
  0
BLOCK_RECORD
  5
9144
330
5EFB
100
AcDbSymbolTableRecord
100
AcDbBlockTableRecord
  2
*D53
340
0
  0
BLOCK_RECORD
  5
9152
330
5EFB
100
AcDbSymbolTableRecord
100
AcDbBlockTableRecord
  2
*D54
340
0
  0
BLOCK_RECORD
  5
916B
330
5EFB
100
AcDbSymbolTableRecord
100
AcDbBlockTableRecord
  2
*D55
340
0
  0
BLOCK_RECORD
  5
9179
330
5EFB
100
AcDbSymbolTableRecord
100
AcDbBlockTableRecord
  2
*D56
340
0
  0
BLOCK_RECORD
  5
9237
330
5EFB
100
AcDbSymbolTableRecord
100
AcDbBlockTableRecord
  2
*D57
340
0
  0
BLOCK_RECORD
  5
9245
330
5EFB
100
AcDbSymbolTableRecord
100
AcDbBlockTableRecord
  2
*D58
340
0
  0
BLOCK_RECORD
  5
9253
330
5EFB
100
AcDbSymbolTableRecord
100
AcDbBlockTableRecord
  2
*D59
340
0
  0
BLOCK_RECORD
  5
9261
330
5EFB
100
AcDbSymbolTableRecord
100
AcDbBlockTableRecord
  2
*D60
340
0
  0
BLOCK_RECORD
  5
926F
330
5EFB
100
AcDbSymbolTableRecord
100
AcDbBlockTableRecord
  2
*D61
340
0
  0
BLOCK_RECORD
  5
927A
330
5EFB
100
AcDbSymbolTableRecord
100
AcDbBlockTableRecord
  2
*D62
340
0
  0
BLOCK_RECORD
  5
9285
330
5EFB
100
AcDbSymbolTableRecord
100
AcDbBlockTableRecord
  2
*D63
340
0
  0
BLOCK_RECORD
  5
9293
330
5EFB
100
AcDbSymbolTableRecord
100
AcDbBlockTableRecord
  2
*D64
340
0
  0
BLOCK_RECORD
  5
92A1
330
5EFB
100
AcDbSymbolTableRecord
100
AcDbBlockTableRecord
  2
*D65
340
0
  0
BLOCK_RECORD
  5
92AF
330
5EFB
100
AcDbSymbolTableRecord
100
AcDbBlockTableRecord
  2
*D66
340
0
  0
BLOCK_RECORD
  5
93C3
330
5EFB
100
AcDbSymbolTableRecord
100
AcDbBlockTableRecord
  2
*D68
340
0
  0
BLOCK_RECORD
  5
93D1
330
5EFB
100
AcDbSymbolTableRecord
100
AcDbBlockTableRecord
  2
*D69
340
0
  0
BLOCK_RECORD
  5
93DF
330
5EFB
100
AcDbSymbolTableRecord
100
AcDbBlockTableRecord
  2
*D70
340
0
  0
BLOCK_RECORD
  5
93ED
330
5EFB
100
AcDbSymbolTableRecord
100
AcDbBlockTableRecord
  2
*D71
340
0
  0
BLOCK_RECORD
  5
9406
330
5EFB
100
AcDbSymbolTableRecord
100
AcDbBlockTableRecord
  2
*D72
340
0
  0
BLOCK_RECORD
  5
9411
330
5EFB
100
AcDbSymbolTableRecord
100
AcDbBlockTableRecord
  2
*D73
340
0
  0
BLOCK_RECORD
  5
9427
330
5EFB
100
AcDbSymbolTableRecord
100
AcDbBlockTableRecord
  2
*D74
340
0
  0
BLOCK_RECORD
  5
9435
330
5EFB
100
AcDbSymbolTableRecord
100
AcDbBlockTableRecord
  2
*D75
340
0
  0
BLOCK_RECORD
  5
944E
330
5EFB
100
AcDbSymbolTableRecord
100
AcDbBlockTableRecord
  2
*D76
340
0
  0
BLOCK_RECORD
  5
945C
330
5EFB
100
AcDbSymbolTableRecord
100
AcDbBlockTableRecord
  2
*D77
340
0
  0
BLOCK_RECORD
  5
94E5
330
5EFB
100
AcDbSymbolTableRecord
100
AcDbBlockTableRecord
  2
*D78
340
0
  0
BLOCK_RECORD
  5
94EF
330
5EFB
100
AcDbSymbolTableRecord
100
AcDbBlockTableRecord
  2
*D79
340
0
  0
ENDTAB
  0
ENDSEC
  0
SECTION
  2
BLOCKS
  0
BLOCK
  5
5F6F
330
5F6E
100
AcDbEntity
  8
0
100
AcDbBlockBegin
  2
*Model_Space
 70
     0
 10
0.0
 20
0.0
 30
0.0
  3
*Model_Space
  1

  0
ENDBLK
  5
5F70
330
5F6E
100
AcDbEntity
  8
0
100
AcDbBlockEnd
  0
BLOCK
  5
5F6B
330
5F6A
100
AcDbEntity
 67
     1
  8
0
100
AcDbBlockBegin
  2
*Paper_Space
 70
     0
 10
0.0
 20
0.0
 30
0.0
  3
*Paper_Space
  1

  0
ENDBLK
  5
5F6C
330
5F6A
100
AcDbEntity
 67
     1
  8
0
100
AcDbBlockEnd
  0
BLOCK
  5
8610
330
860F
100
AcDbEntity
  8
0
100
AcDbBlockBegin
  2
*D0
 70
     1
 10
0.0
 20
0.0
 30
0.0
  3
*D0
  1

  0
LINE
  5
8781
330
860F
100
AcDbEntity
  8
标注
  6
Continuous
370
    -2
100
AcDbLine
 10
1313.712521274906
 20
176.1909182495404
 30
0.0
 11
1317.643538861865
 21
176.1909182495404
 31
0.0
  0
LINE
  5
8782
330
860F
100
AcDbEntity
  8
标注
  6
Continuous
370
    -2
100
AcDbLine
 10
1311.692132288515
 20
166.1909383573768
 30
0.0
 11
1317.643538861865
 21
166.1909383573768
 31
0.0
  0
LINE
  5
8783
330
860F
100
AcDbEntity
  8
标注
  6
Continuous
370
    -2
100
AcDbLine
 10
1317.323538861865
 20
175.5409182495404
 30
0.0
 11
1317.323538861865
 21
172.0863921506619
 31
0.0
  0
LINE
  5
8784
330
860F
100
AcDbEntity
  8
标注
  6
Continuous
370
    -2
100
AcDbLine
 10
1317.323538861865
 20
166.8409383573768
 30
0.0
 11
1317.323538861865
 21
170.2954644562553
 31
0.0
  0
MTEXT
  5
8785
330
860F
100
AcDbEntity
  8
标注
100
AcDbMText
 10
1317.323538861865
 20
171.1909283034588
 30
0.0
 40
0.65
 41
0.0
 71
     5
 72
     1
  1
\A1;10"
 11
0.0000000000000001
 21
1.0
 31
0.0
 73
     1
 44
1.0
1001
ACAD
1000
MTEXTBEGIN
1070
    73
1070
     1
1070
    44
1040
1.0
1070
    74
1070
     0
1000
MTEXTEND
  0
SOLID
  5
8786
330
860F
100
AcDbEntity
  8
标注
100
AcDbTrace
 10
1317.215205528532
 20
175.5409182495404
 30
0.0
 11
1317.431872195199
 21
175.5409182495404
 31
0.0
 12
1317.323538861865
 22
176.1909182495404
 32
0.0
 13
1317.323538861865
 23
176.1909182495404
 33
0.0
  0
SOLID
  5
8787
330
860F
100
AcDbEntity
  8
标注
100
AcDbTrace
 10
1317.215205528532
 20
166.8409383573768
 30
0.0
 11
1317.431872195199
 21
166.8409383573768
 31
0.0
 12
1317.323538861865
 22
166.1909383573768
 32
0.0
 13
1317.323538861865
 23
166.1909383573768
 33
0.0
  0
POINT
  5
8788
330
860F
100
AcDbEntity
  8
DEFPOINTS
 62
     0
100
AcDbPoint
 10
1312.832521274906
 20
176.1909182495404
 30
0.0
  0
POINT
  5
8789
330
860F
100
AcDbEntity
  8
DEFPOINTS
 62
     0
100
AcDbPoint
 10
1310.812132288515
 20
166.1909383573768
 30
0.0
  0
POINT
  5
878A
330
860F
100
AcDbEntity
  8
DEFPOINTS
 62
     0
100
AcDbPoint
 10
1317.323538861865
 20
166.1909383573768
 30
0.0
  0
ENDBLK
  5
8611
330
860F
100
AcDbEntity
  8
0
100
AcDbBlockEnd
  0
BLOCK
  5
861E
330
861D
100
AcDbEntity
  8
0
100
AcDbBlockBegin
  2
*D1
 70
     1
 10
0.0
 20
0.0
 30
0.0
  3
*D1
  1

  0
LINE
  5
86DD
330
861D
100
AcDbEntity
  8
标注
 48
5.0
370
    -2
100
AcDbLine
 10
1312.37394127491
 20
153.4714879729567
 30
0.0
 11
1315.756089483383
 21
153.4714879729567
 31
0.0
  0
LINE
  5
86DE
330
861D
100
AcDbEntity
  8
标注
 48
5.0
370
    -2
100
AcDbLine
 10
1312.37394127491
 20
137.4715199729384
 30
0.0
 11
1315.756089483383
 21
137.4715199729384
 31
0.0
  0
LINE
  5
86DF
330
861D
100
AcDbEntity
  8
标注
 48
5.0
370
    -2
100
AcDbLine
 10
1315.436089483383
 20
152.8214879729567
 30
0.0
 11
1315.436089483383
 21
146.3669678201652
 31
0.0
  0
LINE
  5
86E0
330
861D
100
AcDbEntity
  8
标注
 48
5.0
370
    -2
100
AcDbLine
 10
1315.436089483383
 20
138.1215199729384
 30
0.0
 11
1315.436089483383
 21
144.5760401257587
 31
0.0
  0
MTEXT
  5
86E1
330
861D
100
AcDbEntity
  8
标注
 48
5.0
100
AcDbMText
 10
1315.436089483412
 20
145.4715039729621
 30
0.0
 40
0.65
 41
0.0
 71
     5
 72
     1
  1
\A1;16"
 11
0.0000000000000001
 21
1.0
 31
0.0
 73
     1
 44
1.0
1001
ACAD
1000
MTEXTBEGIN
1070
    73
1070
     1
1070
    44
1040
1.0
1070
    74
1070
     0
1000
MTEXTEND
  0
SOLID
  5
86E2
330
861D
100
AcDbEntity
  8
标注
 48
5.0
100
AcDbTrace
 10
1315.32775615005
 20
152.8214879729567
 30
0.0
 11
1315.544422816716
 21
152.8214879729567
 31
0.0
 12
1315.436089483383
 22
153.4714879729567
 32
0.0
 13
1315.436089483383
 23
153.4714879729567
 33
0.0
  0
SOLID
  5
86E3
330
861D
100
AcDbEntity
  8
标注
 48
5.0
100
AcDbTrace
 10
1315.32775615005
 20
138.1215199729384
 30
0.0
 11
1315.544422816716
 21
138.1215199729384
 31
0.0
 12
1315.436089483383
 22
137.4715199729384
 32
0.0
 13
1315.436089483383
 23
137.4715199729384
 33
0.0
  0
POINT
  5
86E4
330
861D
100
AcDbEntity
  8
DEFPOINTS
 62
     0
 48
5.0
100
AcDbPoint
 10
1311.49394127491
 20
153.4714879729567
 30
0.0
  0
POINT
  5
86E5
330
861D
100
AcDbEntity
  8
DEFPOINTS
 62
     0
 48
5.0
100
AcDbPoint
 10
1311.49394127491
 20
137.4715199729384
 30
0.0
  0
POINT
  5
86E6
330
861D
100
AcDbEntity
  8
DEFPOINTS
 62
     0
 48
5.0
100
AcDbPoint
 10
1315.436089483383
 20
137.4715199729384
 30
0.0
  0
ENDBLK
  5
861F
330
861D
100
AcDbEntity
  8
0
100
AcDbBlockEnd
  0
BLOCK
  5
862B
330
862A
100
AcDbEntity
  8
0
100
AcDbBlockBegin
  2
*D2
 70
     1
 10
0.0
 20
0.0
 30
0.0
  3
*D2
  1

  0
LINE
  5
8805
330
862A
100
AcDbEntity
  8
标注
 48
5.0
370
    -2
100
AcDbLine
 10
1295.993873849906
 20
136.5915199729385
 30
0.0
 11
1295.993873849906
 21
132.2002470845155
 31
0.0
  0
LINE
  5
8806
330
862A
100
AcDbEntity
  8
标注
 48
5.0
370
    -2
100
AcDbLine
 10
1281.493804424902
 20
136.5915199729385
 30
0.0
 11
1281.493804424902
 21
132.2002470845155
 31
0.0
  0
LINE
  5
8807
330
862A
100
AcDbEntity
  8
标注
 48
5.0
370
    -2
100
AcDbLine
 10
1295.343873849906
 20
132.5202470845155
 30
0.0
 11
1291.396599756776
 21
132.5202470845155
 31
0.0
  0
LINE
  5
8808
330
862A
100
AcDbEntity
  8
标注
 48
5.0
370
    -2
100
AcDbLine
 10
1282.143804424902
 20
132.5202470845155
 30
0.0
 11
1288.091074518031
 21
132.5202470845155
 31
0.0
  0
MTEXT
  5
8809
330
862A
100
AcDbEntity
  8
标注
 48
5.0
100
AcDbMText
 10
1289.743837137403
 20
132.5202470845155
 30
0.0
 40
0.65
 41
0.0
 71
     5
 72
     1
  1
\A1;14 1/2"
 73
     1
 44
1.0
1001
ACAD
1000
MTEXTBEGIN
1070
    73
1070
     1
1070
    44
1040
1.0
1070
    74
1070
     0
1000
MTEXTEND
  0
SOLID
  5
880A
330
862A
100
AcDbEntity
  8
标注
 48
5.0
100
AcDbTrace
 10
1295.343873849906
 20
132.6285804178488
 30
0.0
 11
1295.343873849906
 21
132.4119137511821
 31
0.0
 12
1295.993873849906
 22
132.5202470845155
 32
0.0
 13
1295.993873849906
 23
132.5202470845155
 33
0.0
  0
SOLID
  5
880B
330
862A
100
AcDbEntity
  8
标注
 48
5.0
100
AcDbTrace
 10
1282.143804424902
 20
132.6285804178488
 30
0.0
 11
1282.143804424902
 21
132.4119137511821
 31
0.0
 12
1281.493804424902
 22
132.5202470845155
 32
0.0
 13
1281.493804424902
 23
132.5202470845155
 33
0.0
  0
POINT
  5
880C
330
862A
100
AcDbEntity
  8
DEFPOINTS
 62
     0
 48
5.0
100
AcDbPoint
 10
1295.993873849906
 20
137.4715199729384
 30
0.0
  0
POINT
  5
880D
330
862A
100
AcDbEntity
  8
DEFPOINTS
 62
     0
 48
5.0
100
AcDbPoint
 10
1281.493804424902
 20
137.4715199729384
 30
0.0
  0
POINT
  5
880E
330
862A
100
AcDbEntity
  8
DEFPOINTS
 62
     0
 48
5.0
100
AcDbPoint
 10
1281.493804424902
 20
132.5202470845155
 30
0.0
  0
ENDBLK
  5
862C
330
862A
100
AcDbEntity
  8
0
100
AcDbBlockEnd
  0
BLOCK
  5
8638
330
8637
100
AcDbEntity
  8
0
100
AcDbBlockBegin
  2
*D3
 70
     1
 10
0.0
 20
0.0
 30
0.0
  3
*D3
  1

  0
LINE
  5
880F
330
8637
100
AcDbEntity
  8
标注
 48
5.0
370
    -2
100
AcDbLine
 10
1312.93094627491
 20
134.0915249729474
 30
0.0
 11
1312.93094627491
 21
130.4437306777841
 31
0.0
  0
LINE
  5
8810
330
8637
100
AcDbEntity
  8
标注
 48
5.0
370
    -2
100
AcDbLine
 10
1280.056799424916
 20
134.0915249729474
 30
0.0
 11
1280.056799424916
 21
130.4437306777841
 31
0.0
  0
LINE
  5
8811
330
8637
100
AcDbEntity
  8
标注
 48
5.0
370
    -2
100
AcDbLine
 10
1312.28094627491
 20
130.7637306777841
 30
0.0
 11
1298.177007229176
 21
130.7637306777841
 31
0.0
  0
LINE
  5
8812
330
8637
100
AcDbEntity
  8
标注
 48
5.0
370
    -2
100
AcDbLine
 10
1280.706799424916
 20
130.7637306777841
 30
0.0
 11
1294.81073847065
 21
130.7637306777841
 31
0.0
  0
MTEXT
  5
8813
330
8637
100
AcDbEntity
  8
标注
 48
5.0
100
AcDbMText
 10
1296.493872849913
 20
130.7637306777841
 30
0.0
 40
0.65
 41
0.0
 71
     5
 72
     1
  1
\A1;32 7/8"
 73
     1
 44
1.0
1001
ACAD
1000
MTEXTBEGIN
1070
    73
1070
     1
1070
    44
1040
1.0
1070
    74
1070
     0
1000
MTEXTEND
  0
SOLID
  5
8814
330
8637
100
AcDbEntity
  8
标注
 48
5.0
100
AcDbTrace
 10
1312.28094627491
 20
130.8720640111174
 30
0.0
 11
1312.28094627491
 21
130.6553973444508
 31
0.0
 12
1312.93094627491
 22
130.7637306777841
 32
0.0
 13
1312.93094627491
 23
130.7637306777841
 33
0.0
  0
SOLID
  5
8815
330
8637
100
AcDbEntity
  8
标注
 48
5.0
100
AcDbTrace
 10
1280.706799424916
 20
130.8720640111174
 30
0.0
 11
1280.706799424916
 21
130.6553973444508
 31
0.0
 12
1280.056799424916
 22
130.7637306777841
 32
0.0
 13
1280.056799424916
 23
130.7637306777841
 33
0.0
  0
POINT
  5
8816
330
8637
100
AcDbEntity
  8
DEFPOINTS
 62
     0
 48
5.0
100
AcDbPoint
 10
1312.93094627491
 20
134.9715249729474
 30
0.0
  0
POINT
  5
8817
330
8637
100
AcDbEntity
  8
DEFPOINTS
 62
     0
 48
5.0
100
AcDbPoint
 10
1280.056799424916
 20
134.9715249729474
 30
0.0
  0
POINT
  5
8818
330
8637
100
AcDbEntity
  8
DEFPOINTS
 62
     0
 48
5.0
100
AcDbPoint
 10
1280.056799424916
 20
130.7637306777841
 30
0.0
  0
ENDBLK
  5
8639
330
8637
100
AcDbEntity
  8
0
100
AcDbBlockEnd
  0
BLOCK
  5
8645
330
8644
100
AcDbEntity
  8
0
100
AcDbBlockBegin
  2
*D4
 70
     1
 10
0.0
 20
0.0
 30
0.0
  3
*D4
  1

  0
LINE
  5
876D
330
8644
100
AcDbEntity
  8
标注
  6
Continuous
370
    -2
100
AcDbLine
 10
1313.81094627491
 20
154.9714849729339
 30
0.0
 11
1319.500571694496
 21
154.9714849729339
 31
0.0
  0
LINE
  5
876E
330
8644
100
AcDbEntity
  8
标注
  6
Continuous
370
    -2
100
AcDbLine
 10
1297.373872849913
 20
134.2215264729588
 30
0.0
 11
1319.500571694496
 21
134.2215264729588
 31
0.0
  0
LINE
  5
876F
330
8644
100
AcDbEntity
  8
标注
  6
Continuous
370
    -2
100
AcDbLine
 10
1319.180571694497
 20
154.3214849729339
 30
0.0
 11
1319.180571694497
 21
146.2854040858675
 31
0.0
  0
LINE
  5
8770
330
8644
100
AcDbEntity
  8
标注
  6
Continuous
370
    -2
100
AcDbLine
 10
1319.180571694497
 20
134.8715264729588
 30
0.0
 11
1319.180571694497
 21
142.907607360083
 31
0.0
  0
MTEXT
  5
8771
330
8644
100
AcDbEntity
  8
标注
100
AcDbMText
 10
1319.180571694526
 20
144.5965057229755
 30
0.0
 40
0.65
 41
0.0
 71
     5
 72
     1
  1
\A1;20 3/4"
 11
0.0000000000000001
 21
1.0
 31
0.0
 73
     1
 44
1.0
1001
ACAD
1000
MTEXTBEGIN
1070
    73
1070
     1
1070
    44
1040
1.0
1070
    74
1070
     0
1000
MTEXTEND
  0
SOLID
  5
8772
330
8644
100
AcDbEntity
  8
标注
100
AcDbTrace
 10
1319.072238361163
 20
154.3214849729339
 30
0.0
 11
1319.28890502783
 21
154.3214849729339
 31
0.0
 12
1319.180571694497
 22
154.9714849729339
 32
0.0
 13
1319.180571694497
 23
154.9714849729339
 33
0.0
  0
SOLID
  5
8773
330
8644
100
AcDbEntity
  8
标注
100
AcDbTrace
 10
1319.072238361163
 20
134.8715264729588
 30
0.0
 11
1319.28890502783
 21
134.8715264729588
 31
0.0
 12
1319.180571694497
 22
134.2215264729588
 32
0.0
 13
1319.180571694497
 23
134.2215264729588
 33
0.0
  0
POINT
  5
8774
330
8644
100
AcDbEntity
  8
DEFPOINTS
 62
     0
100
AcDbPoint
 10
1312.93094627491
 20
154.9714849729339
 30
0.0
  0
POINT
  5
8775
330
8644
100
AcDbEntity
  8
DEFPOINTS
 62
     0
100
AcDbPoint
 10
1296.493872849913
 20
134.2215264729588
 30
0.0
  0
POINT
  5
8776
330
8644
100
AcDbEntity
  8
DEFPOINTS
 62
     0
100
AcDbPoint
 10
1319.180571694497
 20
134.2215264729588
 30
0.0
  0
ENDBLK
  5
8646
330
8644
100
AcDbEntity
  8
0
100
AcDbBlockEnd
  0
BLOCK
  5
8652
330
8651
100
AcDbEntity
  8
0
100
AcDbBlockBegin
  2
*D5
 70
     1
 10
0.0
 20
0.0
 30
0.0
  3
*D5
  1

  0
LINE
  5
8777
330
8651
100
AcDbEntity
  8
标注
  6
Continuous
370
    -2
100
AcDbLine
 10
1313.712521274906
 20
176.1909182495404
 30
0.0
 11
1315.710350809861
 21
176.1909182495404
 31
0.0
  0
LINE
  5
8778
330
8651
100
AcDbEntity
  8
标注
  6
Continuous
370
    -2
100
AcDbLine
 10
1313.712521274906
 20
167.1909362495319
 30
0.0
 11
1315.710350809861
 21
167.1909362495319
 31
0.0
  0
LINE
  5
8779
330
8651
100
AcDbEntity
  8
标注
  6
Continuous
370
    -2
100
AcDbLine
 10
1315.390350809861
 20
175.5409182495404
 30
0.0
 11
1315.390350809861
 21
172.3644777270259
 31
0.0
  0
LINE
  5
877A
330
8651
100
AcDbEntity
  8
标注
  6
Continuous
370
    -2
100
AcDbLine
 10
1315.390350809861
 20
167.8409362495319
 30
0.0
 11
1315.390350809861
 21
171.0173767720464
 31
0.0
  0
SOLID
  5
877B
330
8651
100
AcDbEntity
  8
标注
100
AcDbTrace
 10
1315.282017476528
 20
175.5409182495404
 30
0.0
 11
1315.498684143195
 21
175.5409182495404
 31
0.0
 12
1315.390350809861
 22
176.1909182495404
 32
0.0
 13
1315.390350809861
 23
176.1909182495404
 33
0.0
  0
SOLID
  5
877C
330
8651
100
AcDbEntity
  8
标注
100
AcDbTrace
 10
1315.282017476528
 20
167.8409362495319
 30
0.0
 11
1315.498684143195
 21
167.8409362495319
 31
0.0
 12
1315.390350809861
 22
167.1909362495319
 32
0.0
 13
1315.390350809861
 23
167.1909362495319
 33
0.0
  0
MTEXT
  5
877D
330
8651
100
AcDbEntity
  8
标注
100
AcDbMText
 10
1315.390350809861
 20
171.6909272495364
 30
0.0
 40
0.65
 41
0.0
 71
     5
 72
     1
  1
\A1;9"
 11
0.0000000000000001
 21
1.0
 31
0.0
 73
     1
 44
1.0
1001
ACAD
1000
MTEXTBEGIN
1070
    73
1070
     1
1070
    44
1040
1.0
1070
    74
1070
     0
1000
MTEXTEND
  0
POINT
  5
877E
330
8651
100
AcDbEntity
  8
DEFPOINTS
 62
     0
100
AcDbPoint
 10
1312.832521274906
 20
176.1909182495404
 30
0.0
  0
POINT
  5
877F
330
8651
100
AcDbEntity
  8
DEFPOINTS
 62
     0
100
AcDbPoint
 10
1312.832521274906
 20
167.1909362495319
 30
0.0
  0
POINT
  5
8780
330
8651
100
AcDbEntity
  8
DEFPOINTS
 62
     0
100
AcDbPoint
 10
1315.390350809861
 20
167.1909362495319
 30
0.0
  0
ENDBLK
  5
8653
330
8651
100
AcDbEntity
  8
0
100
AcDbBlockEnd
  0
BLOCK
  5
8660
330
865F
100
AcDbEntity
  8
0
100
AcDbBlockBegin
  2
*D6
 70
     1
 10
0.0
 20
0.0
 30
0.0
  3
*D6
  1

  0
LINE
  5
8819
330
865F
100
AcDbEntity
  8
标注线
 48
5.0
370
    -2
100
AcDbLine
 10
1312.493103582672
 20
115.8323676398272
 30
0.0
 11
1315.202277365724
 21
115.8323676398272
 31
0.0
  0
LINE
  5
881A
330
865F
100
AcDbEntity
  8
标注线
 48
5.0
370
    -2
100
AcDbLine
 10
1312.493103582672
 20
97.13240515890214
 30
0.0
 11
1315.202277365724
 21
97.13240515890214
 31
0.0
  0
LINE
  5
881B
330
865F
100
AcDbEntity
  8
标注线
 48
5.0
370
    -2
100
AcDbLine
 10
1314.882277365724
 20
115.1823676398272
 30
0.0
 11
1314.882277365724
 21
108.1351490187371
 31
0.0
  0
LINE
  5
881C
330
865F
100
AcDbEntity
  8
标注线
 48
5.0
370
    -2
100
AcDbLine
 10
1314.882277365724
 20
97.78240515890216
 30
0.0
 11
1314.882277365724
 21
104.8296237799922
 31
0.0
  0
SOLID
  5
881D
330
865F
100
AcDbEntity
  8
标注线
 48
5.0
100
AcDbTrace
 10
1314.773944032391
 20
115.1823676398272
 30
0.0
 11
1314.990610699058
 21
115.1823676398272
 31
0.0
 12
1314.882277365724
 22
115.8323676398272
 32
0.0
 13
1314.882277365724
 23
115.8323676398272
 33
0.0
  0
SOLID
  5
881E
330
865F
100
AcDbEntity
  8
标注线
 48
5.0
100
AcDbTrace
 10
1314.773944032391
 20
97.78240515890216
 30
0.0
 11
1314.990610699058
 21
97.78240515890216
 31
0.0
 12
1314.882277365724
 22
97.13240515890214
 32
0.0
 13
1314.882277365724
 23
97.13240515890214
 33
0.0
  0
MTEXT
  5
881F
330
865F
100
AcDbEntity
  8
标注线
 48
5.0
100
AcDbMText
 10
1314.882277365724
 20
106.4823863993649
 30
0.0
 40
0.65
 41
0.0
 71
     5
 72
     1
  1
\A1;18 3/4"
 11
0.0000000000000001
 21
1.0
 31
0.0
 73
     1
 44
1.0
1001
ACAD
1000
MTEXTBEGIN
1070
    73
1070
     1
1070
    44
1040
1.0
1070
    74
1070
     0
1000
MTEXTEND
  0
POINT
  5
8820
330
865F
100
AcDbEntity
  8
DEFPOINTS
 62
     0
 48
5.0
100
AcDbPoint
 10
1311.613103582671
 20
115.8323676398272
 30
0.0
  0
POINT
  5
8821
330
865F
100
AcDbEntity
  8
DEFPOINTS
 62
     0
 48
5.0
100
AcDbPoint
 10
1311.613103582671
 20
97.1324051589022
 30
0.0
  0
POINT
  5
8822
330
865F
100
AcDbEntity
  8
DEFPOINTS
 62
     0
 48
5.0
100
AcDbPoint
 10
1314.882277365724
 20
97.13240515890214
 30
0.0
  0
ENDBLK
  5
8661
330
865F
100
AcDbEntity
  8
0
100
AcDbBlockEnd
  0
BLOCK
  5
8678
330
8677
100
AcDbEntity
  8
0
100
AcDbBlockBegin
  2
*D7
 70
     1
 10
0.0
 20
0.0
 30
0.0
  3
*D7
  1

  0
LINE
  5
87DA
330
8677
100
AcDbEntity
  8
标注
  6
Continuous
370
    -2
100
AcDbLine
 10
1279.275224424905
 20
176.1909182495404
 30
0.0
 11
1277.569130957598
 21
176.1909182495404
 31
0.0
  0
LINE
  5
87DB
330
8677
100
AcDbEntity
  8
标注
  6
Continuous
370
    -2
100
AcDbLine
 10
1279.297730332591
 20
166.1907074628655
 30
0.0
 11
1277.569130957598
 21
166.1907074628655
 31
0.0
  0
LINE
  5
87DC
330
8677
100
AcDbEntity
  8
标注
  6
Continuous
370
    -2
100
AcDbLine
 10
1277.889130957598
 20
175.5409182495404
 30
0.0
 11
1277.889130957598
 21
172.0862767034062
 31
0.0
  0
LINE
  5
87DD
330
8677
100
AcDbEntity
  8
标注
  6
Continuous
370
    -2
100
AcDbLine
 10
1277.889130957598
 20
166.8407074628655
 30
0.0
 11
1277.889130957598
 21
170.2953490089997
 31
0.0
  0
SOLID
  5
87DE
330
8677
100
AcDbEntity
  8
标注
100
AcDbTrace
 10
1277.780797624264
 20
175.5409182495404
 30
0.0
 11
1277.997464290931
 21
175.5409182495404
 31
0.0
 12
1277.889130957598
 22
176.1909182495404
 32
0.0
 13
1277.889130957598
 23
176.1909182495404
 33
0.0
  0
SOLID
  5
87DF
330
8677
100
AcDbEntity
  8
标注
100
AcDbTrace
 10
1277.780797624264
 20
166.8407074628655
 30
0.0
 11
1277.997464290931
 21
166.8407074628655
 31
0.0
 12
1277.889130957598
 22
166.1907074628655
 32
0.0
 13
1277.889130957598
 23
166.1907074628655
 33
0.0
  0
MTEXT
  5
87E0
330
8677
100
AcDbEntity
  8
标注
100
AcDbMText
 10
1277.889130957598
 20
171.1908128562031
 30
0.0
 40
0.65
 41
0.0
 71
     5
 72
     1
  1
\A1;10"
 11
0.0000000000000001
 21
1.0
 31
0.0
 73
     1
 44
1.0
1001
ACAD
1000
MTEXTBEGIN
1070
    73
1070
     1
1070
    44
1040
1.0
1070
    74
1070
     0
1000
MTEXTEND
  0
POINT
  5
87E1
330
8677
100
AcDbEntity
  8
DEFPOINTS
 62
     0
100
AcDbPoint
 10
1280.155224424905
 20
176.1909182495404
 30
0.0
  0
POINT
  5
87E2
330
8677
100
AcDbEntity
  8
DEFPOINTS
 62
     0
100
AcDbPoint
 10
1280.177730332592
 20
166.1907074628655
 30
0.0
  0
POINT
  5
87E3
330
8677
100
AcDbEntity
  8
DEFPOINTS
 62
     0
100
AcDbPoint
 10
1277.889130957598
 20
166.1907074628655
 30
0.0
  0
ENDBLK
  5
8679
330
8677
100
AcDbEntity
  8
0
100
AcDbBlockEnd
  0
BLOCK
  5
8686
330
8685
100
AcDbEntity
  8
0
100
AcDbBlockBegin
  2
*D8
 70
     1
 10
0.0
 20
0.0
 30
0.0
  3
*D8
  1

  0
LINE
  5
8823
330
8685
100
AcDbEntity
  8
标注线
 48
5.0
370
    -2
100
AcDbLine
 10
1281.455486732668
 20
96.25240515890221
 30
0.0
 11
1281.455486732668
 21
93.6652988023577
 31
0.0
  0
LINE
  5
8824
330
8685
100
AcDbEntity
  8
标注线
 48
5.0
370
    -2
100
AcDbLine
 10
1311.613103582671
 20
96.25240515890221
 30
0.0
 11
1311.613103582671
 21
93.6652988023577
 31
0.0
  0
LINE
  5
8825
330
8685
100
AcDbEntity
  8
标注线
 48
5.0
370
    -2
100
AcDbLine
 10
1282.105486732668
 20
93.98529880235768
 30
0.0
 11
1294.851160778407
 21
93.98529880235768
 31
0.0
  0
LINE
  5
8826
330
8685
100
AcDbEntity
  8
标注线
 48
5.0
370
    -2
100
AcDbLine
 10
1310.963103582671
 20
93.98529880235768
 30
0.0
 11
1298.217429536933
 21
93.98529880235768
 31
0.0
  0
SOLID
  5
8827
330
8685
100
AcDbEntity
  8
标注线
 48
5.0
100
AcDbTrace
 10
1282.105486732668
 20
94.09363213569099
 30
0.0
 11
1282.105486732668
 21
93.87696546902436
 31
0.0
 12
1281.455486732668
 22
93.98529880235768
 32
0.0
 13
1281.455486732668
 23
93.98529880235768
 33
0.0
  0
SOLID
  5
8828
330
8685
100
AcDbEntity
  8
标注线
 48
5.0
100
AcDbTrace
 10
1310.963103582671
 20
94.09363213569099
 30
0.0
 11
1310.963103582671
 21
93.87696546902436
 31
0.0
 12
1311.613103582671
 22
93.98529880235768
 32
0.0
 13
1311.613103582671
 23
93.98529880235768
 33
0.0
  0
MTEXT
  5
8829
330
8685
100
AcDbEntity
  8
标注线
 48
5.0
100
AcDbMText
 10
1296.53429515767
 20
93.98529880235768
 30
0.0
 40
0.65
 41
0.0
 71
     5
 72
     1
  1
\A1;30 1/8"
 73
     1
 44
1.0
1001
ACAD
1000
MTEXTBEGIN
1070
    73
1070
     1
1070
    44
1040
1.0
1070
    74
1070
     0
1000
MTEXTEND
  0
POINT
  5
882A
330
8685
100
AcDbEntity
  8
DEFPOINTS
 62
     0
 48
5.0
100
AcDbPoint
 10
1281.455486732668
 20
97.1324051589022
 30
0.0
  0
POINT
  5
882B
330
8685
100
AcDbEntity
  8
DEFPOINTS
 62
     0
 48
5.0
100
AcDbPoint
 10
1311.613103582671
 20
97.1324051589022
 30
0.0
  0
POINT
  5
882C
330
8685
100
AcDbEntity
  8
DEFPOINTS
 62
     0
 48
5.0
100
AcDbPoint
 10
1311.613103582671
 20
93.98529880235768
 30
0.0
  0
ENDBLK
  5
8687
330
8685
100
AcDbEntity
  8
0
100
AcDbBlockEnd
  0
BLOCK
  5
86BB
330
86BA
100
AcDbEntity
  8
0
100
AcDbBlockBegin
  2
*D9
 70
     1
 10
0.0
 20
0.0
 30
0.0
  3
*D9
  1

  0
LINE
  5
87FB
330
86BA
100
AcDbEntity
  8
标注线
 48
5.0
370
    -2
100
AcDbLine
 10
1296.993871849905
 20
136.5915199729385
 30
0.0
 11
1296.993871849905
 21
132.2002470845155
 31
0.0
  0
LINE
  5
87FC
330
86BA
100
AcDbEntity
  8
标注线
 48
5.0
370
    -2
100
AcDbLine
 10
1311.49394127491
 20
136.5915199729385
 30
0.0
 11
1311.49394127491
 21
132.2002470845155
 31
0.0
  0
LINE
  5
87FD
330
86BA
100
AcDbEntity
  8
标注线
 48
5.0
370
    -2
100
AcDbLine
 10
1297.643871849906
 20
132.5202470845155
 30
0.0
 11
1302.591143943035
 21
132.5202470845155
 31
0.0
  0
LINE
  5
87FE
330
86BA
100
AcDbEntity
  8
标注线
 48
5.0
370
    -2
100
AcDbLine
 10
1310.84394127491
 20
132.5202470845155
 30
0.0
 11
1305.89666918178
 21
132.5202470845155
 31
0.0
  0
SOLID
  5
87FF
330
86BA
100
AcDbEntity
  8
标注线
 48
5.0
100
AcDbTrace
 10
1297.643871849906
 20
132.6285804178488
 30
0.0
 11
1297.643871849906
 21
132.4119137511821
 31
0.0
 12
1296.993871849905
 22
132.5202470845155
 32
0.0
 13
1296.993871849905
 23
132.5202470845155
 33
0.0
  0
SOLID
  5
8800
330
86BA
100
AcDbEntity
  8
标注线
 48
5.0
100
AcDbTrace
 10
1310.84394127491
 20
132.6285804178488
 30
0.0
 11
1310.84394127491
 21
132.4119137511821
 31
0.0
 12
1311.49394127491
 22
132.5202470845155
 32
0.0
 13
1311.49394127491
 23
132.5202470845155
 33
0.0
  0
MTEXT
  5
8801
330
86BA
100
AcDbEntity
  8
标注线
 48
5.0
100
AcDbMText
 10
1304.243906562408
 20
132.5202470845155
 30
0.0
 40
0.65
 41
0.0
 71
     5
 72
     1
  1
\A1;14 1/2"
 73
     1
 44
1.0
1001
ACAD
1000
MTEXTBEGIN
1070
    73
1070
     1
1070
    44
1040
1.0
1070
    74
1070
     0
1000
MTEXTEND
  0
POINT
  5
8802
330
86BA
100
AcDbEntity
  8
DEFPOINTS
 62
     0
 48
5.0
100
AcDbPoint
 10
1296.993871849905
 20
137.4715199729384
 30
0.0
  0
POINT
  5
8803
330
86BA
100
AcDbEntity
  8
DEFPOINTS
 62
     0
 48
5.0
100
AcDbPoint
 10
1311.49394127491
 20
137.4715199729384
 30
0.0
  0
POINT
  5
8804
330
86BA
100
AcDbEntity
  8
DEFPOINTS
 62
     0
 48
5.0
100
AcDbPoint
 10
1311.49394127491
 20
132.5202470845155
 30
0.0
  0
ENDBLK
  5
86BC
330
86BA
100
AcDbEntity
  8
0
100
AcDbBlockEnd
  0
BLOCK
  5
8969
330
8968
100
AcDbEntity
  8
0
100
AcDbBlockBegin
  2
*D10
 70
     1
 10
0.0
 20
0.0
 30
0.0
  3
*D10
  1

  0
LINE
  5
8A1A
330
8968
100
AcDbEntity
  8
标注线
 48
5.0
370
    -2
100
AcDbLine
 10
1369.021459276496
 20
136.7952567081138
 30
0.0
 11
1369.021459276496
 21
133.9128341796536
 31
0.0
  0
LINE
  5
8A1B
330
8968
100
AcDbEntity
  8
标注线
 48
5.0
370
    -2
100
AcDbLine
 10
1399.021399276505
 20
136.7952567081138
 30
0.0
 11
1399.021399276505
 21
133.9128341796536
 31
0.0
  0
LINE
  5
8A1C
330
8968
100
AcDbEntity
  8
标注线
 48
5.0
370
    -2
100
AcDbLine
 10
1369.671459276496
 20
134.2328341796536
 30
0.0
 11
1383.095593669406
 21
134.2328341796536
 31
0.0
  0
LINE
  5
8A1D
330
8968
100
AcDbEntity
  8
标注线
 48
5.0
370
    -2
100
AcDbLine
 10
1398.371399276505
 20
134.2328341796536
 30
0.0
 11
1384.947264883594
 21
134.2328341796536
 31
0.0
  0
MTEXT
  5
8A1E
330
8968
100
AcDbEntity
  8
标注线
 48
5.0
100
AcDbMText
 10
1384.0214292765
 20
134.2328341796536
 30
0.0
 40
0.65
 41
0.0
 71
     5
 72
     1
  1
\A1;30"
 73
     1
 44
1.0
1001
ACAD
1000
MTEXTBEGIN
1070
    73
1070
     1
1070
    44
1040
1.0
1070
    74
1070
     0
1000
MTEXTEND
  0
SOLID
  5
8A1F
330
8968
100
AcDbEntity
  8
标注线
 48
5.0
100
AcDbTrace
 10
1369.671459276496
 20
134.3411675129869
 30
0.0
 11
1369.671459276496
 21
134.1245008463203
 31
0.0
 12
1369.021459276496
 22
134.2328341796536
 32
0.0
 13
1369.021459276496
 23
134.2328341796536
 33
0.0
  0
SOLID
  5
8A20
330
8968
100
AcDbEntity
  8
标注线
 48
5.0
100
AcDbTrace
 10
1398.371399276505
 20
134.3411675129869
 30
0.0
 11
1398.371399276505
 21
134.1245008463203
 31
0.0
 12
1399.021399276505
 22
134.2328341796536
 32
0.0
 13
1399.021399276505
 23
134.2328341796536
 33
0.0
  0
POINT
  5
8A21
330
8968
100
AcDbEntity
  8
DEFPOINTS
 62
     0
 48
5.0
100
AcDbPoint
 10
1369.021459276496
 20
137.6752567081138
 30
0.0
  0
POINT
  5
8A22
330
8968
100
AcDbEntity
  8
DEFPOINTS
 62
     0
 48
5.0
100
AcDbPoint
 10
1399.021399276505
 20
137.6752567081138
 30
0.0
  0
POINT
  5
8A23
330
8968
100
AcDbEntity
  8
DEFPOINTS
 62
     0
 48
5.0
100
AcDbPoint
 10
1399.021399276505
 20
134.2328341796536
 30
0.0
  0
ENDBLK
  5
896A
330
8968
100
AcDbEntity
  8
0
100
AcDbBlockEnd
  0
BLOCK
  5
8976
330
8975
100
AcDbEntity
  8
0
100
AcDbBlockBegin
  2
*D11
 70
     1
 10
0.0
 20
0.0
 30
0.0
  3
*D11
  1

  0
LINE
  5
8A24
330
8975
100
AcDbEntity
  8
标注线
 48
5.0
370
    -2
100
AcDbLine
 10
1400.295099276505
 20
156.0689207081167
 30
0.0
 11
1403.640340201665
 21
156.0689207081167
 31
0.0
  0
LINE
  5
8A25
330
8975
100
AcDbEntity
  8
标注线
 48
5.0
370
    -2
100
AcDbLine
 10
1400.295099276505
 20
138.0689567081143
 30
0.0
 11
1403.640340201665
 21
138.0689567081143
 31
0.0
  0
LINE
  5
8A26
330
8975
100
AcDbEntity
  8
标注线
 48
5.0
370
    -2
100
AcDbLine
 10
1403.320340201665
 20
155.4189207081166
 30
0.0
 11
1403.320340201665
 21
147.9644025553404
 31
0.0
  0
LINE
  5
8A27
330
8975
100
AcDbEntity
  8
标注线
 48
5.0
370
    -2
100
AcDbLine
 10
1403.320340201665
 20
138.7189567081143
 30
0.0
 11
1403.320340201665
 21
146.1734748609338
 31
0.0
  0
MTEXT
  5
8A28
330
8975
100
AcDbEntity
  8
标注线
 48
5.0
100
AcDbMText
 10
1403.32034020168
 20
147.0689387081373
 30
0.0
 40
0.65
 41
0.0
 71
     5
 72
     1
  1
\A1;18"
 11
0.0000000000000001
 21
1.0
 31
0.0
 73
     1
 44
1.0
1001
ACAD
1000
MTEXTBEGIN
1070
    73
1070
     1
1070
    44
1040
1.0
1070
    74
1070
     0
1000
MTEXTEND
  0
SOLID
  5
8A29
330
8975
100
AcDbEntity
  8
标注线
 48
5.0
100
AcDbTrace
 10
1403.212006868332
 20
155.4189207081166
 30
0.0
 11
1403.428673534999
 21
155.4189207081166
 31
0.0
 12
1403.320340201665
 22
156.0689207081167
 32
0.0
 13
1403.320340201665
 23
156.0689207081167
 33
0.0
  0
SOLID
  5
8A2A
330
8975
100
AcDbEntity
  8
标注线
 48
5.0
100
AcDbTrace
 10
1403.212006868332
 20
138.7189567081143
 30
0.0
 11
1403.428673534999
 21
138.7189567081143
 31
0.0
 12
1403.320340201665
 22
138.0689567081143
 32
0.0
 13
1403.320340201665
 23
138.0689567081143
 33
0.0
  0
POINT
  5
8A2B
330
8975
100
AcDbEntity
  8
DEFPOINTS
 62
     0
 48
5.0
100
AcDbPoint
 10
1399.415099276505
 20
156.0689207081167
 30
0.0
  0
POINT
  5
8A2C
330
8975
100
AcDbEntity
  8
DEFPOINTS
 62
     0
 48
5.0
100
AcDbPoint
 10
1399.415099276505
 20
138.0689567081143
 30
0.0
  0
POINT
  5
8A2D
330
8975
100
AcDbEntity
  8
DEFPOINTS
 62
     0
 48
5.0
100
AcDbPoint
 10
1403.320340201665
 20
138.0689567081143
 30
0.0
  0
ENDBLK
  5
8977
330
8975
100
AcDbEntity
  8
0
100
AcDbBlockEnd
  0
BLOCK
  5
8983
330
8982
100
AcDbEntity
  8
0
100
AcDbBlockBegin
  2
*D12
 70
     1
 10
0.0
 20
0.0
 30
0.0
  3
*D12
  1

  0
LINE
  5
8BBB
330
8982
100
AcDbEntity
  8
标注线
 48
5.0
370
    -2
100
AcDbLine
 10
1400.295099276505
 20
155.0689227081173
 30
0.0
 11
1401.629899276493
 21
155.0689227081173
 31
0.0
  0
LINE
  5
8BBC
330
8982
100
AcDbEntity
  8
标注线
 48
5.0
370
    -2
100
AcDbLine
 10
1400.295099276505
 20
139.0689547081136
 30
0.0
 11
1401.629899276493
 21
139.0689547081136
 31
0.0
  0
LINE
  5
8BBD
330
8982
100
AcDbEntity
  8
标注线
 48
5.0
370
    -2
100
AcDbLine
 10
1401.309899276493
 20
154.4189227081173
 30
0.0
 11
1401.309899276493
 21
147.9644025553404
 31
0.0
  0
LINE
  5
8BBE
330
8982
100
AcDbEntity
  8
标注线
 48
5.0
370
    -2
100
AcDbLine
 10
1401.309899276493
 20
139.7189547081136
 30
0.0
 11
1401.309899276493
 21
146.1734748609338
 31
0.0
  0
MTEXT
  5
8BBF
330
8982
100
AcDbEntity
  8
标注线
 48
5.0
100
AcDbMText
 10
1401.309899276508
 20
147.0689387081373
 30
0.0
 40
0.65
 41
0.0
 71
     5
 72
     1
  1
\A1;16"
 11
0.0000000000000001
 21
1.0
 31
0.0
 73
     1
 44
1.0
1001
ACAD
1000
MTEXTBEGIN
1070
    73
1070
     1
1070
    44
1040
1.0
1070
    74
1070
     0
1000
MTEXTEND
  0
SOLID
  5
8BC0
330
8982
100
AcDbEntity
  8
标注线
 48
5.0
100
AcDbTrace
 10
1401.20156594316
 20
154.4189227081173
 30
0.0
 11
1401.418232609826
 21
154.4189227081173
 31
0.0
 12
1401.309899276493
 22
155.0689227081173
 32
0.0
 13
1401.309899276493
 23
155.0689227081173
 33
0.0
  0
SOLID
  5
8BC1
330
8982
100
AcDbEntity
  8
标注线
 48
5.0
100
AcDbTrace
 10
1401.20156594316
 20
139.7189547081136
 30
0.0
 11
1401.418232609826
 21
139.7189547081136
 31
0.0
 12
1401.309899276493
 22
139.0689547081136
 32
0.0
 13
1401.309899276493
 23
139.0689547081136
 33
0.0
  0
POINT
  5
8BC2
330
8982
100
AcDbEntity
  8
DEFPOINTS
 62
     0
 48
5.0
100
AcDbPoint
 10
1399.415099276505
 20
155.0689227081173
 30
0.0
  0
POINT
  5
8BC3
330
8982
100
AcDbEntity
  8
DEFPOINTS
 62
     0
 48
5.0
100
AcDbPoint
 10
1399.415099276505
 20
139.0689547081136
 30
0.0
  0
POINT
  5
8BC4
330
8982
100
AcDbEntity
  8
DEFPOINTS
 62
     0
 48
5.0
100
AcDbPoint
 10
1401.309899276493
 20
139.0689547081136
 30
0.0
  0
ENDBLK
  5
8984
330
8982
100
AcDbEntity
  8
0
100
AcDbBlockEnd
  0
BLOCK
  5
8990
330
898F
100
AcDbEntity
  8
0
100
AcDbBlockBegin
  2
*D13
 70
     1
 10
0.0
 20
0.0
 30
0.0
  3
*D13
  1

  0
LINE
  5
8A38
330
898F
100
AcDbEntity
  8
标注线
 48
5.0
370
    -2
100
AcDbLine
 10
1370.021457276495
 20
136.7952567081138
 30
0.0
 11
1370.021457276495
 21
135.7804567081116
 31
0.0
  0
LINE
  5
8A39
330
898F
100
AcDbEntity
  8
标注线
 48
5.0
370
    -2
100
AcDbLine
 10
1398.021401276505
 20
136.7952567081138
 30
0.0
 11
1398.021401276505
 21
135.7804567081116
 31
0.0
  0
LINE
  5
8A3A
330
898F
100
AcDbEntity
  8
标注线
 48
5.0
370
    -2
100
AcDbLine
 10
1370.671457276495
 20
136.1004567081115
 30
0.0
 11
1383.089829685778
 21
136.1004567081115
 31
0.0
  0
LINE
  5
8A3B
330
898F
100
AcDbEntity
  8
标注线
 48
5.0
370
    -2
100
AcDbLine
 10
1397.371401276505
 20
136.1004567081115
 30
0.0
 11
1384.953028867223
 21
136.1004567081115
 31
0.0
  0
SOLID
  5
8A3C
330
898F
100
AcDbEntity
  8
标注线
 48
5.0
100
AcDbTrace
 10
1370.671457276495
 20
136.2087900414449
 30
0.0
 11
1370.671457276495
 21
135.9921233747783
 31
0.0
 12
1370.021457276495
 22
136.1004567081115
 32
0.0
 13
1370.021457276495
 23
136.1004567081115
 33
0.0
  0
SOLID
  5
8A3D
330
898F
100
AcDbEntity
  8
标注线
 48
5.0
100
AcDbTrace
 10
1397.371401276505
 20
136.2087900414449
 30
0.0
 11
1397.371401276505
 21
135.9921233747783
 31
0.0
 12
1398.021401276505
 22
136.1004567081115
 32
0.0
 13
1398.021401276505
 23
136.1004567081115
 33
0.0
  0
MTEXT
  5
8A3E
330
898F
100
AcDbEntity
  8
标注线
 48
5.0
100
AcDbMText
 10
1384.0214292765
 20
136.1004567081115
 30
0.0
 40
0.65
 41
0.0
 71
     5
 72
     1
  1
\A1;28"
 73
     1
 44
1.0
1001
ACAD
1000
MTEXTBEGIN
1070
    73
1070
     1
1070
    44
1040
1.0
1070
    74
1070
     0
1000
MTEXTEND
  0
POINT
  5
8A3F
330
898F
100
AcDbEntity
  8
DEFPOINTS
 62
     0
 48
5.0
100
AcDbPoint
 10
1370.021457276495
 20
137.6752567081138
 30
0.0
  0
POINT
  5
8A40
330
898F
100
AcDbEntity
  8
DEFPOINTS
 62
     0
 48
5.0
100
AcDbPoint
 10
1398.021401276505
 20
137.6752567081138
 30
0.0
  0
POINT
  5
8A41
330
898F
100
AcDbEntity
  8
DEFPOINTS
 62
     0
 48
5.0
100
AcDbPoint
 10
1398.021401276505
 20
136.1004567081115
 30
0.0
  0
ENDBLK
  5
8991
330
898F
100
AcDbEntity
  8
0
100
AcDbBlockEnd
  0
BLOCK
  5
89C5
330
89C4
100
AcDbEntity
  8
0
100
AcDbBlockBegin
  2
*D14
 70
     1
 10
0.0
 20
0.0
 30
0.0
  3
*D14
  1

  0
LINE
  5
8A06
330
89C4
100
AcDbEntity
  8
标注线
 48
5.0
370
    -2
100
AcDbLine
 10
1370.021457276495
 20
101.7968589123414
 30
0.0
 11
1370.021457276495
 21
99.99987259630408
 31
0.0
  0
LINE
  5
8A07
330
89C4
100
AcDbEntity
  8
标注线
 48
5.0
370
    -2
100
AcDbLine
 10
1398.1788812765
 20
101.7968589123414
 30
0.0
 11
1398.1788812765
 21
99.99987259630408
 31
0.0
  0
LINE
  5
8A08
330
89C4
100
AcDbEntity
  8
标注线
 48
5.0
370
    -2
100
AcDbLine
 10
1370.671457276495
 20
100.3198725963041
 30
0.0
 11
1382.411270913606
 21
100.3198725963041
 31
0.0
  0
LINE
  5
8A09
330
89C4
100
AcDbEntity
  8
标注线
 48
5.0
370
    -2
100
AcDbLine
 10
1397.5288812765
 20
100.3198725963041
 30
0.0
 11
1385.78906763939
 21
100.3198725963041
 31
0.0
  0
SOLID
  5
8A0A
330
89C4
100
AcDbEntity
  8
标注线
 48
5.0
100
AcDbTrace
 10
1370.671457276495
 20
100.4282059296374
 30
0.0
 11
1370.671457276495
 21
100.2115392629707
 31
0.0
 12
1370.021457276495
 22
100.3198725963041
 32
0.0
 13
1370.021457276495
 23
100.3198725963041
 33
0.0
  0
SOLID
  5
8A0B
330
89C4
100
AcDbEntity
  8
标注线
 48
5.0
100
AcDbTrace
 10
1397.5288812765
 20
100.4282059296374
 30
0.0
 11
1397.5288812765
 21
100.2115392629707
 31
0.0
 12
1398.1788812765
 22
100.3198725963041
 32
0.0
 13
1398.1788812765
 23
100.3198725963041
 33
0.0
  0
MTEXT
  5
8A0C
330
89C4
100
AcDbEntity
  8
标注线
 48
5.0
100
AcDbMText
 10
1384.100169276498
 20
100.3198725963041
 30
0.0
 40
0.65
 41
0.0
 71
     5
 72
     1
  1
\A1;28 1/8"
 73
     1
 44
1.0
1001
ACAD
1000
MTEXTBEGIN
1070
    73
1070
     1
1070
    44
1040
1.0
1070
    74
1070
     0
1000
MTEXTEND
  0
POINT
  5
8A0D
330
89C4
100
AcDbEntity
  8
DEFPOINTS
 62
     0
 48
5.0
100
AcDbPoint
 10
1370.021457276495
 20
102.6768589123414
 30
0.0
  0
POINT
  5
8A0E
330
89C4
100
AcDbEntity
  8
DEFPOINTS
 62
     0
 48
5.0
100
AcDbPoint
 10
1398.1788812765
 20
102.6768589123414
 30
0.0
  0
POINT
  5
8A0F
330
89C4
100
AcDbEntity
  8
DEFPOINTS
 62
     0
 48
5.0
100
AcDbPoint
 10
1398.1788812765
 20
100.3198725963041
 30
0.0
  0
ENDBLK
  5
89C6
330
89C4
100
AcDbEntity
  8
0
100
AcDbBlockEnd
  0
BLOCK
  5
89D2
330
89D1
100
AcDbEntity
  8
0
100
AcDbBlockBegin
  2
*D15
 70
     1
 10
0.0
 20
0.0
 30
0.0
  3
*D15
  1

  0
LINE
  5
8A10
330
89D1
100
AcDbEntity
  8
标注线
 48
5.0
370
    -2
100
AcDbLine
 10
1399.0588812765
 20
118.8343069123396
 30
0.0
 11
1400.742646127699
 21
118.8343069123396
 31
0.0
  0
LINE
  5
8A11
330
89D1
100
AcDbEntity
  8
标注线
 48
5.0
370
    -2
100
AcDbLine
 10
1399.0588812765
 20
102.6768589123414
 30
0.0
 11
1400.742646127699
 21
102.6768589123414
 31
0.0
  0
LINE
  5
8A12
330
89D1
100
AcDbEntity
  8
标注线
 48
5.0
370
    -2
100
AcDbLine
 10
1400.422646127698
 20
118.1843069123395
 30
0.0
 11
1400.422646127698
 21
112.4083455317129
 31
0.0
  0
LINE
  5
8A13
330
89D1
100
AcDbEntity
  8
标注线
 48
5.0
370
    -2
100
AcDbLine
 10
1400.422646127698
 20
103.3268589123414
 30
0.0
 11
1400.422646127698
 21
109.102820292968
 31
0.0
  0
SOLID
  5
8A14
330
89D1
100
AcDbEntity
  8
标注线
 48
5.0
100
AcDbTrace
 10
1400.314312794365
 20
118.1843069123395
 30
0.0
 11
1400.530979461032
 21
118.1843069123395
 31
0.0
 12
1400.422646127698
 22
118.8343069123396
 32
0.0
 13
1400.422646127698
 23
118.8343069123396
 33
0.0
  0
SOLID
  5
8A15
330
89D1
100
AcDbEntity
  8
标注线
 48
5.0
100
AcDbTrace
 10
1400.314312794365
 20
103.3268589123414
 30
0.0
 11
1400.530979461032
 21
103.3268589123414
 31
0.0
 12
1400.422646127698
 22
102.6768589123414
 32
0.0
 13
1400.422646127698
 23
102.6768589123414
 33
0.0
  0
MTEXT
  5
8A16
330
89D1
100
AcDbEntity
  8
标注线
 48
5.0
100
AcDbMText
 10
1400.422646127698
 20
110.7555829123407
 30
0.0
 40
0.65
 41
0.0
 71
     5
 72
     1
  1
\A1;16 1/8"
 11
0.0000000000000001
 21
1.0
 31
0.0
 73
     1
 44
1.0
1001
ACAD
1000
MTEXTBEGIN
1070
    73
1070
     1
1070
    44
1040
1.0
1070
    74
1070
     0
1000
MTEXTEND
  0
POINT
  5
8A17
330
89D1
100
AcDbEntity
  8
DEFPOINTS
 62
     0
 48
5.0
100
AcDbPoint
 10
1398.1788812765
 20
118.8343069123396
 30
0.0
  0
POINT
  5
8A18
330
89D1
100
AcDbEntity
  8
DEFPOINTS
 62
     0
 48
5.0
100
AcDbPoint
 10
1398.1788812765
 20
102.6768589123414
 30
0.0
  0
POINT
  5
8A19
330
89D1
100
AcDbEntity
  8
DEFPOINTS
 62
     0
 48
5.0
100
AcDbPoint
 10
1400.422646127698
 20
102.6768589123414
 30
0.0
  0
ENDBLK
  5
89D3
330
89D1
100
AcDbEntity
  8
0
100
AcDbBlockEnd
  0
BLOCK
  5
8A44
330
8A43
100
AcDbEntity
  8
0
100
AcDbBlockBegin
  2
*D16
 70
     1
 10
0.0
 20
0.0
 30
0.0
  3
*D16
  1

  0
LINE
  5
8BB1
330
8A43
100
AcDbEntity
  8
标注线
 48
5.0
370
    -2
100
AcDbLine
 10
1398.815524716133
 20
166.8495581917554
 30
0.0
 11
1400.940995132308
 21
166.8495581917554
 31
0.0
  0
LINE
  5
8BB2
330
8A43
100
AcDbEntity
  8
标注线
 48
5.0
370
    -2
100
AcDbLine
 10
1399.901399276505
 20
176.8578800556799
 30
0.0
 11
1400.940995132308
 21
176.8578800556799
 31
0.0
  0
LINE
  5
8BB3
330
8A43
100
AcDbEntity
  8
标注线
 48
5.0
370
    -2
100
AcDbLine
 10
1400.620995132308
 20
167.4995581917554
 30
0.0
 11
1400.620995132308
 21
170.9582552765144
 31
0.0
  0
LINE
  5
8BB4
330
8A43
100
AcDbEntity
  8
标注线
 48
5.0
370
    -2
100
AcDbLine
 10
1400.620995132308
 20
176.20788005568
 30
0.0
 11
1400.620995132308
 21
172.7491829709209
 31
0.0
  0
SOLID
  5
8BB5
330
8A43
100
AcDbEntity
  8
标注线
 48
5.0
100
AcDbTrace
 10
1400.512661798974
 20
167.4995581917554
 30
0.0
 11
1400.729328465641
 21
167.4995581917554
 31
0.0
 12
1400.620995132308
 22
166.8495581917554
 32
0.0
 13
1400.620995132308
 23
166.8495581917554
 33
0.0
  0
SOLID
  5
8BB6
330
8A43
100
AcDbEntity
  8
标注线
 48
5.0
100
AcDbTrace
 10
1400.512661798974
 20
176.20788005568
 30
0.0
 11
1400.729328465641
 21
176.20788005568
 31
0.0
 12
1400.620995132308
 22
176.8578800556799
 32
0.0
 13
1400.620995132308
 23
176.8578800556799
 33
0.0
  0
MTEXT
  5
8BB7
330
8A43
100
AcDbEntity
  8
标注线
 48
5.0
100
AcDbMText
 10
1400.620995132308
 20
171.8537191237179
 30
0.0
 40
0.65
 41
0.0
 71
     5
 72
     1
  1
\A1;10"
 11
0.0000000000000001
 21
1.0
 31
0.0
 73
     1
 44
1.0
1001
ACAD
1000
MTEXTBEGIN
1070
    73
1070
     1
1070
    44
1040
1.0
1070
    74
1070
     0
1000
MTEXTEND
  0
POINT
  5
8BB8
330
8A43
100
AcDbEntity
  8
DEFPOINTS
 62
     0
 48
5.0
100
AcDbPoint
 10
1397.935524716133
 20
166.8495581917554
 30
0.0
  0
POINT
  5
8BB9
330
8A43
100
AcDbEntity
  8
DEFPOINTS
 62
     0
 48
5.0
100
AcDbPoint
 10
1399.021399276505
 20
176.8578800556799
 30
0.0
  0
POINT
  5
8BBA
330
8A43
100
AcDbEntity
  8
DEFPOINTS
 62
     0
 48
5.0
100
AcDbPoint
 10
1400.620995132308
 20
176.8578800556799
 30
0.0
  0
ENDBLK
  5
8A45
330
8A43
100
AcDbEntity
  8
0
100
AcDbBlockEnd
  0
BLOCK
  5
8C02
330
8C01
100
AcDbEntity
  8
0
 48
5.0
100
AcDbBlockBegin
  2
*D18
 70
     1
 10
0.0
 20
0.0
 30
0.0
  3
*D18
  1

  0
LINE
  5
8C03
330
8C01
100
AcDbEntity
  8
标注
  6
Continuous
 48
5.0
370
    -2
100
AcDbLine
 10
194399.8102763521
 20
-180117.2681726009
 30
0.0
 11
194404.8387878881
 21
-180117.2681726009
 31
0.0
  0
LINE
  5
8C04
330
8C01
100
AcDbEntity
  8
标注
  6
Continuous
 48
5.0
370
    -2
100
AcDbLine
 10
194398.3089125273
 20
-180122.768152061
 30
0.0
 11
194404.8387878881
 21
-180122.768152061
 31
0.0
  0
LINE
  5
8C05
330
8C01
100
AcDbEntity
  8
标注
  6
Continuous
 62
     0
 48
5.0
370
    -2
100
AcDbLine
 10
194406.8387878881
 20
-180103.2681726009
 30
0.0
 11
194406.8387878881
 21
-180089.2681726009
 31
0.0
  0
LINE
  5
8C06
330
8C01
100
AcDbEntity
  8
标注
  6
Continuous
 62
     0
 48
5.0
370
    -2
100
AcDbLine
 10
194406.8387878881
 20
-180136.768152061
 30
0.0
 11
194406.8387878881
 21
-180150.768152061
 31
0.0
  0
LINE
  5
8C07
330
8C01
100
AcDbEntity
  8
标注
  6
Continuous
 62
     0
 48
5.0
370
    -2
100
AcDbLine
 10
194406.8387878881
 20
-180117.2681726009
 30
0.0
 11
194406.8387878881
 21
-180122.768152061
 31
0.0
  0
SOLID
  5
8C08
330
8C01
100
AcDbEntity
  8
标注
 62
     0
 48
5.0
100
AcDbTrace
 10
194404.5054545547
 20
-180103.2681726009
 30
0.0
 11
194409.1721212214
 21
-180103.2681726009
 31
0.0
 12
194406.8387878881
 22
-180117.2681726009
 32
0.0
 13
194406.8387878881
 23
-180117.2681726009
 33
0.0
  0
SOLID
  5
8C09
330
8C01
100
AcDbEntity
  8
标注
 62
     0
 48
5.0
100
AcDbTrace
 10
194404.5054545547
 20
-180136.768152061
 30
0.0
 11
194409.1721212214
 21
-180136.768152061
 31
0.0
 12
194406.8387878881
 22
-180122.768152061
 32
0.0
 13
194406.8387878881
 23
-180122.768152061
 33
0.0
  0
MTEXT
  5
8C0A
330
8C01
100
AcDbEntity
  8
标注
 62
     0
 48
5.0
100
AcDbMText
 10
194406.8387878881
 20
-180120.018162331
 30
0.0
 40
14.0
 41
0.0
 71
     5
 72
     1
  1
5,5
 11
0.0000000000000001
 21
1.0
 31
0.0
 73
     1
 44
1.0
1001
ACAD
1000
MTEXTBEGIN
1070
    73
1070
     1
1070
    44
1040
1.0
1070
    74
1070
     0
1000
MTEXTEND
  0
POINT
  5
8C0B
330
8C01
100
AcDbEntity
  8
DEFPOINTS
 62
     0
 48
5.0
100
AcDbPoint
 10
194409.8102763521
 20
-180117.2681726009
 30
0.0
  0
POINT
  5
8C0C
330
8C01
100
AcDbEntity
  8
DEFPOINTS
 62
     0
 48
5.0
100
AcDbPoint
 10
194408.3089125273
 20
-180122.768152061
 30
0.0
  0
POINT
  5
8C0D
330
8C01
100
AcDbEntity
  8
DEFPOINTS
 62
     0
 48
5.0
100
AcDbPoint
 10
194406.8387878881
 20
-180122.768152061
 30
0.0
  0
ENDBLK
  5
8C0E
330
8C01
100
AcDbEntity
  8
0
 48
5.0
100
AcDbBlockEnd
  0
BLOCK
  5
8C10
330
8C0F
100
AcDbEntity
  8
0
 48
5.0
100
AcDbBlockBegin
  2
*D19
 70
     1
 10
0.0
 20
0.0
 30
0.0
  3
*D19
  1

  0
ARC
  5
8C11
330
8C0F
100
AcDbEntity
  8
标注
  6
Continuous
 62
     0
 48
5.0
370
    -2
100
AcDbCircle
 10
194387.2507369794
 20
-180117.2681726009
 30
0.0
 40
2.049122295260387
100
AcDbArc
 50
274.0050893786509
 51
94.00508937865087
  0
ARC
  5
8C12
330
8C0F
100
AcDbEntity
  8
标注
  6
Continuous
 62
     0
 48
5.0
370
    -2
100
AcDbCircle
 10
194387.2507369794
 20
-180117.2681726009
 30
0.0
 40
2.049122295260387
100
AcDbArc
 50
180.0000000000187
 51
0.000000000018705
  0
ARC
  5
8C13
330
8C0F
100
AcDbEntity
  8
标注
  6
Continuous
 62
     0
 48
5.0
370
    -2
100
AcDbCircle
 10
194387.2507369794
 20
-180117.2681726009
 30
0.0
 40
2.049122295260387
100
AcDbArc
 50
274.0050893786509
 51
0.000000000018705
  0
SOLID
  5
8C14
330
8C0F
100
AcDbEntity
  8
标注
 62
     0
 48
5.0
100
AcDbTrace
 10
194388.7436619117
 20
-180105.1835088694
 30
0.0
 11
194384.0883919446
 21
-180105.5094525924
 31
0.0
 12
194387.3938580972
 22
-180119.3122906324
 32
0.0
 13
194387.3938580972
 23
-180119.3122906324
 33
0.0
  0
SOLID
  5
8C15
330
8C0F
100
AcDbEntity
  8
标注
 62
     0
 48
5.0
100
AcDbTrace
 10
194375.2998592747
 20
-180114.9348392676
 30
0.0
 11
194375.2998592747
 21
-180119.6015059343
 31
0.0
 12
194389.2998592747
 22
-180117.268172601
 32
0.0
 13
194389.2998592747
 23
-180117.268172601
 33
0.0
  0
MTEXT
  5
8C16
330
8C0F
100
AcDbEntity
  8
标注
 62
     0
 48
5.0
100
AcDbMText
 10
194388.6919338475
 20
-180118.7248310264
 30
0.0
 40
14.0
 41
0.0
 71
     5
 72
     1
  1
86\U+00B0
 11
0.7108694433748855
 21
0.7033239896917213
 31
0.0
 73
     1
 44
1.0
1001
ACAD
1000
MTEXTBEGIN
1070
    73
1070
     1
1070
    44
1040
1.0
1070
    74
1070
     0
1000
MTEXTEND
  0
POINT
  5
8C17
330
8C0F
100
AcDbEntity
  8
DEFPOINTS
 62
     0
 48
5.0
100
AcDbPoint
 10
194389.0487180292
 20
-180118.251110201
 30
0.0
  0
POINT
  5
8C18
330
8C0F
100
AcDbEntity
  8
DEFPOINTS
 62
     0
 48
5.0
100
AcDbPoint
 10
194387.2571469858
 20
-180117.3597230986
 30
0.0
  0
POINT
  5
8C19
330
8C0F
100
AcDbEntity
  8
DEFPOINTS
 62
     0
 48
5.0
100
AcDbPoint
 10
194413.3424596045
 20
-180117.2681726009
 30
0.0
  0
POINT
  5
8C1A
330
8C0F
100
AcDbEntity
  8
DEFPOINTS
 62
     0
 48
5.0
100
AcDbPoint
 10
194387.1589623543
 20
-180117.2681726009
 30
0.0
  0
POINT
  5
8C1B
330
8C0F
100
AcDbEntity
  8
DEFPOINTS
 62
     0
 48
5.0
100
AcDbPoint
 10
194387.6944753608
 20
-180123.6058370934
 30
0.0
  0
ENDBLK
  5
8C1C
330
8C0F
100
AcDbEntity
  8
0
 48
5.0
100
AcDbBlockEnd
  0
BLOCK
  5
8C1E
330
8C1D
100
AcDbEntity
  8
0
 48
5.0
100
AcDbBlockBegin
  2
*D20
 70
     1
 10
0.0
 20
0.0
 30
0.0
  3
*D20
  1

  0
LINE
  5
8C1F
330
8C1D
100
AcDbEntity
  8
标注
  6
Continuous
 48
5.0
370
    -2
100
AcDbLine
 10
194422.6601349794
 20
-180136.5344294905
 30
0.0
 11
194418.4417105241
 21
-180136.5344294905
 31
0.0
  0
LINE
  5
8C20
330
8C1D
100
AcDbEntity
  8
标注
  6
Continuous
 48
5.0
370
    -2
100
AcDbLine
 10
194422.6601349794
 20
-180153.0343964905
 30
0.0
 11
194418.4417105241
 21
-180153.0343964905
 31
0.0
  0
LINE
  5
8C21
330
8C1D
100
AcDbEntity
  8
标注
  6
Continuous
 62
     0
 48
5.0
370
    -2
100
AcDbLine
 10
194416.4417105241
 20
-180122.5344294905
 30
0.0
 11
194416.4417105241
 21
-180108.5344294905
 31
0.0
  0
LINE
  5
8C22
330
8C1D
100
AcDbEntity
  8
标注
  6
Continuous
 62
     0
 48
5.0
370
    -2
100
AcDbLine
 10
194416.4417105241
 20
-180167.0343964905
 30
0.0
 11
194416.4417105241
 21
-180181.0343964905
 31
0.0
  0
LINE
  5
8C23
330
8C1D
100
AcDbEntity
  8
标注
  6
Continuous
 62
     0
 48
5.0
370
    -2
100
AcDbLine
 10
194416.4417105241
 20
-180136.5344294905
 30
0.0
 11
194416.4417105241
 21
-180153.0343964905
 31
0.0
  0
SOLID
  5
8C24
330
8C1D
100
AcDbEntity
  8
标注
 62
     0
 48
5.0
100
AcDbTrace
 10
194414.1083771908
 20
-180122.5344294905
 30
0.0
 11
194418.7750438575
 21
-180122.5344294905
 31
0.0
 12
194416.4417105241
 22
-180136.5344294905
 32
0.0
 13
194416.4417105241
 23
-180136.5344294905
 33
0.0
  0
SOLID
  5
8C25
330
8C1D
100
AcDbEntity
  8
标注
 62
     0
 48
5.0
100
AcDbTrace
 10
194414.1083771908
 20
-180167.0343964905
 30
0.0
 11
194418.7750438575
 21
-180167.0343964905
 31
0.0
 12
194416.4417105241
 22
-180153.0343964905
 32
0.0
 13
194416.4417105241
 23
-180153.0343964905
 33
0.0
  0
MTEXT
  5
8C26
330
8C1D
100
AcDbEntity
  8
标注
 62
     0
 48
5.0
100
AcDbMText
 10
194416.4417105241
 20
-180144.7844129905
 30
0.0
 40
14.0
 41
0.0
 71
     5
 72
     1
  1
16,5
 11
0.0000000000000001
 21
1.0
 31
0.0
 73
     1
 44
1.0
1001
ACAD
1000
MTEXTBEGIN
1070
    73
1070
     1
1070
    44
1040
1.0
1070
    74
1070
     0
1000
MTEXTEND
  0
POINT
  5
8C27
330
8C1D
100
AcDbEntity
  8
DEFPOINTS
 62
     0
 48
5.0
100
AcDbPoint
 10
194412.6601349794
 20
-180136.5344294905
 30
0.0
  0
POINT
  5
8C28
330
8C1D
100
AcDbEntity
  8
DEFPOINTS
 62
     0
 48
5.0
100
AcDbPoint
 10
194412.6601349794
 20
-180153.0343964905
 30
0.0
  0
POINT
  5
8C29
330
8C1D
100
AcDbEntity
  8
DEFPOINTS
 62
     0
 48
5.0
100
AcDbPoint
 10
194416.4417105241
 20
-180153.0343964905
 30
0.0
  0
ENDBLK
  5
8C2A
330
8C1D
100
AcDbEntity
  8
0
 48
5.0
100
AcDbBlockEnd
  0
BLOCK
  5
8C2C
330
8C2B
100
AcDbEntity
  8
0
 48
5.0
100
AcDbBlockBegin
  2
*D21
 70
     1
 10
0.0
 20
0.0
 30
0.0
  3
*D21
  1

  0
LINE
  5
8C2D
330
8C2B
100
AcDbEntity
  8
标注
  6
Continuous
 48
5.0
370
    -2
100
AcDbLine
 10
194423.3176139794
 20
-180135.5344314905
 30
0.0
 11
194420.3063603746
 21
-180135.5344314905
 31
0.0
  0
LINE
  5
8C2E
330
8C2B
100
AcDbEntity
  8
标注
  6
Continuous
 48
5.0
370
    -2
100
AcDbLine
 10
194423.2506849794
 20
-180154.0343944905
 30
0.0
 11
194420.3063603746
 21
-180154.0343944905
 31
0.0
  0
LINE
  5
8C2F
330
8C2B
100
AcDbEntity
  8
标注
  6
Continuous
 62
     0
 48
5.0
370
    -2
100
AcDbLine
 10
194418.3063603746
 20
-180121.5344314905
 30
0.0
 11
194418.3063603746
 21
-180107.5344314905
 31
0.0
  0
LINE
  5
8C30
330
8C2B
100
AcDbEntity
  8
标注
  6
Continuous
 62
     0
 48
5.0
370
    -2
100
AcDbLine
 10
194418.3063603746
 20
-180168.0343944905
 30
0.0
 11
194418.3063603746
 21
-180182.0343944905
 31
0.0
  0
LINE
  5
8C31
330
8C2B
100
AcDbEntity
  8
标注
  6
Continuous
 62
     0
 48
5.0
370
    -2
100
AcDbLine
 10
194418.3063603746
 20
-180135.5344314905
 30
0.0
 11
194418.3063603746
 21
-180154.0343944905
 31
0.0
  0
SOLID
  5
8C32
330
8C2B
100
AcDbEntity
  8
标注
 62
     0
 48
5.0
100
AcDbTrace
 10
194415.9730270412
 20
-180121.5344314905
 30
0.0
 11
194420.6396937079
 21
-180121.5344314905
 31
0.0
 12
194418.3063603746
 22
-180135.5344314905
 32
0.0
 13
194418.3063603746
 23
-180135.5344314905
 33
0.0
  0
SOLID
  5
8C33
330
8C2B
100
AcDbEntity
  8
标注
 62
     0
 48
5.0
100
AcDbTrace
 10
194415.9730270412
 20
-180168.0343944905
 30
0.0
 11
194420.6396937079
 21
-180168.0343944905
 31
0.0
 12
194418.3063603746
 22
-180154.0343944905
 32
0.0
 13
194418.3063603746
 23
-180154.0343944905
 33
0.0
  0
MTEXT
  5
8C34
330
8C2B
100
AcDbEntity
  8
标注
 62
     0
 48
5.0
100
AcDbMText
 10
194418.3063603746
 20
-180144.7844129905
 30
0.0
 40
14.0
 41
0.0
 71
     5
 72
     1
  1
18,5
 11
0.0000000000000001
 21
1.0
 31
0.0
 73
     1
 44
1.0
1001
ACAD
1000
MTEXTBEGIN
1070
    73
1070
     1
1070
    44
1040
1.0
1070
    74
1070
     0
1000
MTEXTEND
  0
POINT
  5
8C35
330
8C2B
100
AcDbEntity
  8
DEFPOINTS
 62
     0
 48
5.0
100
AcDbPoint
 10
194413.3176139794
 20
-180135.5344314905
 30
0.0
  0
POINT
  5
8C36
330
8C2B
100
AcDbEntity
  8
DEFPOINTS
 62
     0
 48
5.0
100
AcDbPoint
 10
194413.2506849794
 20
-180154.0343944905
 30
0.0
  0
POINT
  5
8C37
330
8C2B
100
AcDbEntity
  8
DEFPOINTS
 62
     0
 48
5.0
100
AcDbPoint
 10
194418.3063603746
 20
-180154.0343944905
 30
0.0
  0
ENDBLK
  5
8C38
330
8C2B
100
AcDbEntity
  8
0
 48
5.0
100
AcDbBlockEnd
  0
BLOCK
  5
8C3A
330
8C39
100
AcDbEntity
  8
0
 48
5.0
100
AcDbBlockBegin
  2
*D22
 70
     1
 10
0.0
 20
0.0
 30
0.0
  3
*D22
  1

  0
LINE
  5
8C3B
330
8C39
100
AcDbEntity
  8
标注
  6
Continuous
 48
5.0
370
    -2
100
AcDbLine
 10
194386.2507389794
 20
-180163.1013254905
 30
0.0
 11
194386.2507389794
 21
-180160.0234840238
 31
0.0
  0
LINE
  5
8C3C
330
8C39
100
AcDbEntity
  8
标注
  6
Continuous
 48
5.0
370
    -2
100
AcDbLine
 10
194414.2506829794
 20
-180162.9318010863
 30
0.0
 11
194414.2506829794
 21
-180160.0234840238
 31
0.0
  0
LINE
  5
8C3D
330
8C39
100
AcDbEntity
  8
标注
  6
Continuous
 62
     0
 48
5.0
370
    -2
100
AcDbLine
 10
194372.2507389794
 20
-180158.0234840238
 30
0.0
 11
194358.2507389794
 21
-180158.0234840238
 31
0.0
  0
LINE
  5
8C3E
330
8C39
100
AcDbEntity
  8
标注
  6
Continuous
 62
     0
 48
5.0
370
    -2
100
AcDbLine
 10
194428.2506829794
 20
-180158.0234840238
 30
0.0
 11
194442.2506829794
 21
-180158.0234840238
 31
0.0
  0
LINE
  5
8C3F
330
8C39
100
AcDbEntity
  8
标注
  6
Continuous
 62
     0
 48
5.0
370
    -2
100
AcDbLine
 10
194386.2507389794
 20
-180158.0234840238
 30
0.0
 11
194387.2707109794
 21
-180158.0234840238
 31
0.0
  0
LINE
  5
8C40
330
8C39
100
AcDbEntity
  8
标注
  6
Continuous
 62
     0
 48
5.0
370
    -2
100
AcDbLine
 10
194414.2506829794
 20
-180158.0234840238
 30
0.0
 11
194413.2307109795
 21
-180158.0234840238
 31
0.0
  0
SOLID
  5
8C41
330
8C39
100
AcDbEntity
  8
标注
 62
     0
 48
5.0
100
AcDbTrace
 10
194372.2507389794
 20
-180155.6901506905
 30
0.0
 11
194372.2507389794
 21
-180160.3568173571
 31
0.0
 12
194386.2507389794
 22
-180158.0234840238
 32
0.0
 13
194386.2507389794
 23
-180158.0234840238
 33
0.0
  0
SOLID
  5
8C42
330
8C39
100
AcDbEntity
  8
标注
 62
     0
 48
5.0
100
AcDbTrace
 10
194428.2506829794
 20
-180155.6901506905
 30
0.0
 11
194428.2506829794
 21
-180160.3568173571
 31
0.0
 12
194414.2506829794
 22
-180158.0234840238
 32
0.0
 13
194414.2506829794
 23
-180158.0234840238
 33
0.0
  0
MTEXT
  5
8C43
330
8C39
100
AcDbEntity
  8
标注
 62
     0
 48
5.0
100
AcDbMText
 10
194400.2507109794
 20
-180158.0234840238
 30
0.0
 40
14.0
 41
0.0
 71
     5
 72
     1
  1
28
 73
     1
 44
1.0
1001
ACAD
1000
MTEXTBEGIN
1070
    73
1070
     1
1070
    44
1040
1.0
1070
    74
1070
     0
1000
MTEXTEND
  0
POINT
  5
8C44
330
8C39
100
AcDbEntity
  8
DEFPOINTS
 62
     0
 48
5.0
100
AcDbPoint
 10
194386.2507389794
 20
-180153.1013254905
 30
0.0
  0
POINT
  5
8C45
330
8C39
100
AcDbEntity
  8
DEFPOINTS
 62
     0
 48
5.0
100
AcDbPoint
 10
194414.2506829794
 20
-180152.9318010863
 30
0.0
  0
POINT
  5
8C46
330
8C39
100
AcDbEntity
  8
DEFPOINTS
 62
     0
 48
5.0
100
AcDbPoint
 10
194414.2506829794
 20
-180158.0234840238
 30
0.0
  0
ENDBLK
  5
8C47
330
8C39
100
AcDbEntity
  8
0
 48
5.0
100
AcDbBlockEnd
  0
BLOCK
  5
8C49
330
8C48
100
AcDbEntity
  8
0
 48
5.0
100
AcDbBlockBegin
  2
*D23
 70
     1
 10
0.0
 20
0.0
 30
0.0
  3
*D23
  1

  0
LINE
  5
8C4A
330
8C48
100
AcDbEntity
  8
标注
  6
Continuous
 48
5.0
370
    -2
100
AcDbLine
 10
194387.2507369794
 20
-180162.3480723302
 30
0.0
 11
194387.2507369794
 21
-180158.1571652545
 31
0.0
  0
LINE
  5
8C4B
330
8C48
100
AcDbEntity
  8
标注
  6
Continuous
 48
5.0
370
    -2
100
AcDbLine
 10
194413.2506849794
 20
-180162.4438464905
 30
0.0
 11
194413.2506849794
 21
-180158.1571652545
 31
0.0
  0
LINE
  5
8C4C
330
8C48
100
AcDbEntity
  8
标注
  6
Continuous
 62
     0
 48
5.0
370
    -2
100
AcDbLine
 10
194373.2507369794
 20
-180156.1571652545
 30
0.0
 11
194359.2507369794
 21
-180156.1571652545
 31
0.0
  0
LINE
  5
8C4D
330
8C48
100
AcDbEntity
  8
标注
  6
Continuous
 62
     0
 48
5.0
370
    -2
100
AcDbLine
 10
194427.2506849794
 20
-180156.1571652545
 30
0.0
 11
194441.2506849794
 21
-180156.1571652545
 31
0.0
  0
LINE
  5
8C4E
330
8C48
100
AcDbEntity
  8
标注
  6
Continuous
 62
     0
 48
5.0
370
    -2
100
AcDbLine
 10
194387.2507369794
 20
-180156.1571652545
 30
0.0
 11
194413.2506849794
 21
-180156.1571652545
 31
0.0
  0
SOLID
  5
8C4F
330
8C48
100
AcDbEntity
  8
标注
 62
     0
 48
5.0
100
AcDbTrace
 10
194373.2507369794
 20
-180153.8238319212
 30
0.0
 11
194373.2507369794
 21
-180158.4904985879
 31
0.0
 12
194387.2507369794
 22
-180156.1571652545
 32
0.0
 13
194387.2507369794
 23
-180156.1571652545
 33
0.0
  0
SOLID
  5
8C50
330
8C48
100
AcDbEntity
  8
标注
 62
     0
 48
5.0
100
AcDbTrace
 10
194427.2506849794
 20
-180153.8238319212
 30
0.0
 11
194427.2506849794
 21
-180158.4904985879
 31
0.0
 12
194413.2506849794
 22
-180156.1571652545
 32
0.0
 13
194413.2506849794
 23
-180156.1571652545
 33
0.0
  0
MTEXT
  5
8C51
330
8C48
100
AcDbEntity
  8
标注
 62
     0
 48
5.0
100
AcDbMText
 10
194454.3006849794
 20
-180156.1571652545
 30
0.0
 40
14.0
 41
0.0
 71
     5
 72
     1
  1
26
 73
     1
 44
1.0
1001
ACAD
1000
MTEXTBEGIN
1070
    73
1070
     1
1070
    44
1040
1.0
1070
    74
1070
     0
1000
MTEXTEND
  0
POINT
  5
8C52
330
8C48
100
AcDbEntity
  8
DEFPOINTS
 62
     0
 48
5.0
100
AcDbPoint
 10
194387.2507369794
 20
-180152.3480723303
 30
0.0
  0
POINT
  5
8C53
330
8C48
100
AcDbEntity
  8
DEFPOINTS
 62
     0
 48
5.0
100
AcDbPoint
 10
194413.2506849794
 20
-180152.4438464905
 30
0.0
  0
POINT
  5
8C54
330
8C48
100
AcDbEntity
  8
DEFPOINTS
 62
     0
 48
5.0
100
AcDbPoint
 10
194413.2506849794
 20
-180156.1571652545
 30
0.0
  0
ENDBLK
  5
8C55
330
8C48
100
AcDbEntity
  8
0
 48
5.0
100
AcDbBlockEnd
  0
BLOCK
  5
8C57
330
8C56
100
AcDbEntity
  8
0
 48
5.0
100
AcDbBlockBegin
  2
*D24
 70
     1
 10
0.0
 20
0.0
 30
0.0
  3
*D24
  1

  0
LINE
  5
8C58
330
8C56
100
AcDbEntity
  8
标注
  6
Continuous
 48
5.0
370
    -2
100
AcDbLine
 10
194413.2506849794
 20
-180146.1571652545
 30
0.0
 11
194413.2506849794
 21
-180154.1571652545
 31
0.0
  0
LINE
  5
8C59
330
8C56
100
AcDbEntity
  8
标注
  6
Continuous
 48
5.0
370
    -2
100
AcDbLine
 10
194414.2506829794
 20
-180146.1571652545
 30
0.0
 11
194414.2506829794
 21
-180154.1571652545
 31
0.0
  0
LINE
  5
8C5A
330
8C56
100
AcDbEntity
  8
标注
  6
Continuous
 62
     0
 48
5.0
370
    -2
100
AcDbLine
 10
194399.2506849794
 20
-180156.1571652545
 30
0.0
 11
194385.2506849794
 21
-180156.1571652545
 31
0.0
  0
LINE
  5
8C5B
330
8C56
100
AcDbEntity
  8
标注
  6
Continuous
 62
     0
 48
5.0
370
    -2
100
AcDbLine
 10
194428.2506829794
 20
-180156.1571652545
 30
0.0
 11
194442.2506829794
 21
-180156.1571652545
 31
0.0
  0
LINE
  5
8C5C
330
8C56
100
AcDbEntity
  8
标注
  6
Continuous
 62
     0
 48
5.0
370
    -2
100
AcDbLine
 10
194413.2506849794
 20
-180156.1571652545
 30
0.0
 11
194414.2506829794
 21
-180156.1571652545
 31
0.0
  0
SOLID
  5
8C5D
330
8C56
100
AcDbEntity
  8
标注
 62
     0
 48
5.0
100
AcDbTrace
 10
194399.2506849794
 20
-180153.8238319212
 30
0.0
 11
194399.2506849794
 21
-180158.4904985879
 31
0.0
 12
194413.2506849794
 22
-180156.1571652545
 32
0.0
 13
194413.2506849794
 23
-180156.1571652545
 33
0.0
  0
SOLID
  5
8C5E
330
8C56
100
AcDbEntity
  8
标注
 62
     0
 48
5.0
100
AcDbTrace
 10
194428.2506829794
 20
-180153.8238319212
 30
0.0
 11
194428.2506829794
 21
-180158.4904985879
 31
0.0
 12
194414.2506829794
 22
-180156.1571652545
 32
0.0
 13
194414.2506829794
 23
-180156.1571652545
 33
0.0
  0
MTEXT
  5
8C5F
330
8C56
100
AcDbEntity
  8
标注
 62
     0
 48
5.0
100
AcDbMText
 10
194449.8056829794
 20
-180156.1571652545
 30
0.0
 40
14.0
 41
0.0
 71
     5
 72
     1
  1
1
 73
     1
 44
1.0
1001
ACAD
1000
MTEXTBEGIN
1070
    73
1070
     1
1070
    44
1040
1.0
1070
    74
1070
     0
1000
MTEXTEND
  0
POINT
  5
8C60
330
8C56
100
AcDbEntity
  8
DEFPOINTS
 62
     0
 48
5.0
100
AcDbPoint
 10
194413.2506849794
 20
-180156.1571652545
 30
0.0
  0
POINT
  5
8C61
330
8C56
100
AcDbEntity
  8
DEFPOINTS
 62
     0
 48
5.0
100
AcDbPoint
 10
194414.2506829794
 20
-180156.1571652545
 30
0.0
  0
POINT
  5
8C62
330
8C56
100
AcDbEntity
  8
DEFPOINTS
 62
     0
 48
5.0
100
AcDbPoint
 10
194414.2506829794
 20
-180156.1571652545
 30
0.0
  0
ENDBLK
  5
8C63
330
8C56
100
AcDbEntity
  8
0
 48
5.0
100
AcDbBlockEnd
  0
BLOCK
  5
8C65
330
8C64
100
AcDbEntity
  8
0
 48
5.0
100
AcDbBlockBegin
  2
*D25
 70
     1
 10
0.0
 20
0.0
 30
0.0
  3
*D25
  1

  0
LINE
  5
8C66
330
8C64
100
AcDbEntity
  8
标注
  6
Continuous
 48
5.0
370
    -2
100
AcDbLine
 10
194387.5893164798
 20
-180132.1039122335
 30
0.0
 11
194387.5893164798
 21
-180128.3305759402
 31
0.0
  0
LINE
  5
8C67
330
8C64
100
AcDbEntity
  8
标注
  6
Continuous
 48
5.0
370
    -2
100
AcDbLine
 10
194412.9121054791
 20
-180132.1039122335
 30
0.0
 11
194412.9121054791
 21
-180128.3305759402
 31
0.0
  0
LINE
  5
8C68
330
8C64
100
AcDbEntity
  8
标注
  6
Continuous
 62
     0
 48
5.0
370
    -2
100
AcDbLine
 10
194373.5893164798
 20
-180126.3305759403
 30
0.0
 11
194359.5893164798
 21
-180126.3305759403
 31
0.0
  0
LINE
  5
8C69
330
8C64
100
AcDbEntity
  8
标注
  6
Continuous
 62
     0
 48
5.0
370
    -2
100
AcDbLine
 10
194426.9121054791
 20
-180126.3305759403
 30
0.0
 11
194440.9121054791
 21
-180126.3305759403
 31
0.0
  0
LINE
  5
8C6A
330
8C64
100
AcDbEntity
  8
标注
  6
Continuous
 62
     0
 48
5.0
370
    -2
100
AcDbLine
 10
194387.5893164798
 20
-180126.3305759403
 30
0.0
 11
194412.9121054791
 21
-180126.3305759403
 31
0.0
  0
SOLID
  5
8C6B
330
8C64
100
AcDbEntity
  8
标注
 62
     0
 48
5.0
100
AcDbTrace
 10
194373.5893164798
 20
-180123.9972426069
 30
0.0
 11
194373.5893164798
 21
-180128.6639092736
 31
0.0
 12
194387.5893164798
 22
-180126.3305759403
 32
0.0
 13
194387.5893164798
 23
-180126.3305759403
 33
0.0
  0
SOLID
  5
8C6C
330
8C64
100
AcDbEntity
  8
标注
 62
     0
 48
5.0
100
AcDbTrace
 10
194426.9121054791
 20
-180123.9972426069
 30
0.0
 11
194426.9121054791
 21
-180128.6639092736
 31
0.0
 12
194412.9121054791
 22
-180126.3305759403
 32
0.0
 13
194412.9121054791
 23
-180126.3305759403
 33
0.0
  0
MTEXT
  5
8C6D
330
8C64
100
AcDbEntity
  8
标注
 62
     0
 48
5.0
100
AcDbMText
 10
194468.9071054791
 20
-180126.3305759403
 30
0.0
 40
14.0
 41
0.0
 71
     5
 72
     1
  1
(25,3)
 73
     1
 44
1.0
1001
ACAD
1000
MTEXTBEGIN
1070
    73
1070
     1
1070
    44
1040
1.0
1070
    74
1070
     0
1000
MTEXTEND
  0
POINT
  5
8C6E
330
8C64
100
AcDbEntity
  8
DEFPOINTS
 62
     0
 48
5.0
100
AcDbPoint
 10
194387.5893164798
 20
-180122.1039122335
 30
0.0
  0
POINT
  5
8C6F
330
8C64
100
AcDbEntity
  8
DEFPOINTS
 62
     0
 48
5.0
100
AcDbPoint
 10
194412.9121054791
 20
-180122.1039122335
 30
0.0
  0
POINT
  5
8C70
330
8C64
100
AcDbEntity
  8
DEFPOINTS
 62
     0
 48
5.0
100
AcDbPoint
 10
194412.9121054791
 20
-180126.3305759403
 30
0.0
  0
ENDBLK
  5
8C71
330
8C64
100
AcDbEntity
  8
0
 48
5.0
100
AcDbBlockEnd
  0
BLOCK
  5
8C73
330
8C72
100
AcDbEntity
  8
0
 48
5.0
100
AcDbBlockBegin
  2
*D26
 70
     1
 10
0.0
 20
0.0
 30
0.0
  3
*D26
  1

  0
LINE
  5
8C74
330
8C72
100
AcDbEntity
  8
标注
  6
Continuous
 48
5.0
370
    -2
100
AcDbLine
 10
194388.167599634
 20
-180132.6531160047
 30
0.0
 11
194388.167599634
 21
-180126.7890399212
 31
0.0
  0
LINE
  5
8C75
330
8C72
100
AcDbEntity
  8
标注
  6
Continuous
 48
5.0
370
    -2
100
AcDbLine
 10
194412.5139969499
 20
-180132.6498128938
 30
0.0
 11
194412.5139969499
 21
-180126.7890399212
 31
0.0
  0
LINE
  5
8C76
330
8C72
100
AcDbEntity
  8
标注
  6
Continuous
 62
     0
 48
5.0
370
    -2
100
AcDbLine
 10
194374.167599634
 20
-180124.7890399212
 30
0.0
 11
194360.167599634
 21
-180124.7890399212
 31
0.0
  0
LINE
  5
8C77
330
8C72
100
AcDbEntity
  8
标注
  6
Continuous
 62
     0
 48
5.0
370
    -2
100
AcDbLine
 10
194426.5139969499
 20
-180124.7890399212
 30
0.0
 11
194440.5139969499
 21
-180124.7890399212
 31
0.0
  0
LINE
  5
8C78
330
8C72
100
AcDbEntity
  8
标注
  6
Continuous
 62
     0
 48
5.0
370
    -2
100
AcDbLine
 10
194388.167599634
 20
-180124.7890399212
 30
0.0
 11
194412.5139969499
 21
-180124.7890399212
 31
0.0
  0
SOLID
  5
8C79
330
8C72
100
AcDbEntity
  8
标注
 62
     0
 48
5.0
100
AcDbTrace
 10
194374.167599634
 20
-180122.4557065878
 30
0.0
 11
194374.167599634
 21
-180127.1223732545
 31
0.0
 12
194388.167599634
 22
-180124.7890399212
 32
0.0
 13
194388.167599634
 23
-180124.7890399212
 33
0.0
  0
SOLID
  5
8C7A
330
8C72
100
AcDbEntity
  8
标注
 62
     0
 48
5.0
100
AcDbTrace
 10
194426.5139969499
 20
-180122.4557065878
 30
0.0
 11
194426.5139969499
 21
-180127.1223732545
 31
0.0
 12
194412.5139969499
 22
-180124.7890399212
 32
0.0
 13
194412.5139969499
 23
-180124.7890399212
 33
0.0
  0
MTEXT
  5
8C7B
330
8C72
100
AcDbEntity
  8
标注
 62
     0
 48
5.0
100
AcDbMText
 10
194400.340798292
 20
-180124.7890399212
 30
0.0
 40
14.0
 41
0.0
 71
     5
 72
     1
  1
(24,3)
 73
     1
 44
1.0
1001
ACAD
1000
MTEXTBEGIN
1070
    73
1070
     1
1070
    44
1040
1.0
1070
    74
1070
     0
1000
MTEXTEND
  0
POINT
  5
8C7C
330
8C72
100
AcDbEntity
  8
DEFPOINTS
 62
     0
 48
5.0
100
AcDbPoint
 10
194388.167599634
 20
-180122.6531160047
 30
0.0
  0
POINT
  5
8C7D
330
8C72
100
AcDbEntity
  8
DEFPOINTS
 62
     0
 48
5.0
100
AcDbPoint
 10
194412.5139969499
 20
-180122.6498128938
 30
0.0
  0
POINT
  5
8C7E
330
8C72
100
AcDbEntity
  8
DEFPOINTS
 62
     0
 48
5.0
100
AcDbPoint
 10
194412.5139969499
 20
-180124.7890399212
 30
0.0
  0
ENDBLK
  5
8C7F
330
8C72
100
AcDbEntity
  8
0
 48
5.0
100
AcDbBlockEnd
  0
BLOCK
  5
8C81
330
8C80
100
AcDbEntity
  8
0
 48
5.0
100
AcDbBlockBegin
  2
*D27
 70
     1
 10
0.0
 20
0.0
 30
0.0
  3
*D27
  1

  0
LINE
  5
8C82
330
8C80
100
AcDbEntity
  8
标注
  6
Continuous
 48
5.0
370
    -2
100
AcDbLine
 10
194387.1719969795
 20
-180194.2900443187
 30
0.0
 11
194387.1719969795
 21
-180189.4610283302
 31
0.0
  0
LINE
  5
8C83
330
8C80
100
AcDbEntity
  8
标注
  6
Continuous
 48
5.0
370
    -2
100
AcDbLine
 10
194413.3294249795
 20
-180194.2900443187
 30
0.0
 11
194413.3294249795
 21
-180189.4610283302
 31
0.0
  0
LINE
  5
8C84
330
8C80
100
AcDbEntity
  8
标注
  6
Continuous
 62
     0
 48
5.0
370
    -2
100
AcDbLine
 10
194373.1719969795
 20
-180187.4610283302
 30
0.0
 11
194359.1719969795
 21
-180187.4610283302
 31
0.0
  0
LINE
  5
8C85
330
8C80
100
AcDbEntity
  8
标注
  6
Continuous
 62
     0
 48
5.0
370
    -2
100
AcDbLine
 10
194427.3294249795
 20
-180187.4610283302
 30
0.0
 11
194441.3294249795
 21
-180187.4610283302
 31
0.0
  0
LINE
  5
8C86
330
8C80
100
AcDbEntity
  8
标注
  6
Continuous
 62
     0
 48
5.0
370
    -2
100
AcDbLine
 10
194387.1719969795
 20
-180187.4610283302
 30
0.0
 11
194413.3294249795
 21
-180187.4610283302
 31
0.0
  0
SOLID
  5
8C87
330
8C80
100
AcDbEntity
  8
标注
 62
     0
 48
5.0
100
AcDbTrace
 10
194373.1719969795
 20
-180185.1276949969
 30
0.0
 11
194373.1719969795
 21
-180189.7943616635
 31
0.0
 12
194387.1719969795
 22
-180187.4610283302
 32
0.0
 13
194387.1719969795
 23
-180187.4610283302
 33
0.0
  0
SOLID
  5
8C88
330
8C80
100
AcDbEntity
  8
标注
 62
     0
 48
5.0
100
AcDbTrace
 10
194427.3294249795
 20
-180185.1276949969
 30
0.0
 11
194427.3294249795
 21
-180189.7943616635
 31
0.0
 12
194413.3294249795
 22
-180187.4610283302
 32
0.0
 13
194413.3294249795
 23
-180187.4610283302
 33
0.0
  0
MTEXT
  5
8C89
330
8C80
100
AcDbEntity
  8
标注
 62
     0
 48
5.0
100
AcDbMText
 10
194463.2344249794
 20
-180187.4610283302
 30
0.0
 40
14.0
 41
0.0
 71
     5
 72
     1
  1
26,2
 73
     1
 44
1.0
1001
ACAD
1000
MTEXTBEGIN
1070
    73
1070
     1
1070
    44
1040
1.0
1070
    74
1070
     0
1000
MTEXTEND
  0
POINT
  5
8C8A
330
8C80
100
AcDbEntity
  8
DEFPOINTS
 62
     0
 48
5.0
100
AcDbPoint
 10
194387.1719969795
 20
-180184.2900443188
 30
0.0
  0
POINT
  5
8C8B
330
8C80
100
AcDbEntity
  8
DEFPOINTS
 62
     0
 48
5.0
100
AcDbPoint
 10
194413.3294249795
 20
-180184.2900443188
 30
0.0
  0
POINT
  5
8C8C
330
8C80
100
AcDbEntity
  8
DEFPOINTS
 62
     0
 48
5.0
100
AcDbPoint
 10
194413.3294249795
 20
-180187.4610283302
 30
0.0
  0
ENDBLK
  5
8C8D
330
8C80
100
AcDbEntity
  8
0
 48
5.0
100
AcDbBlockEnd
  0
BLOCK
  5
8C8F
330
8C8E
100
AcDbEntity
  8
0
 48
5.0
100
AcDbBlockBegin
  2
*D28
 70
     1
 10
0.0
 20
0.0
 30
0.0
  3
*D28
  1

  0
LINE
  5
8C90
330
8C8E
100
AcDbEntity
  8
标注
  6
Continuous
 48
5.0
370
    -2
100
AcDbLine
 10
194422.0984765278
 20
-180185.2579267843
 30
0.0
 11
194417.507532675
 21
-180185.2579267843
 31
0.0
  0
LINE
  5
8C91
330
8C8E
100
AcDbEntity
  8
标注
  6
Continuous
 48
5.0
370
    -2
100
AcDbLine
 10
194422.0984765278
 20
-180168.6004797843
 30
0.0
 11
194417.507532675
 21
-180168.6004797843
 31
0.0
  0
LINE
  5
8C92
330
8C8E
100
AcDbEntity
  8
标注
  6
Continuous
 62
     0
 48
5.0
370
    -2
100
AcDbLine
 10
194415.5075326751
 20
-180199.2579267843
 30
0.0
 11
194415.5075326751
 21
-180213.2579267843
 31
0.0
  0
LINE
  5
8C93
330
8C8E
100
AcDbEntity
  8
标注
  6
Continuous
 62
     0
 48
5.0
370
    -2
100
AcDbLine
 10
194415.5075326751
 20
-180154.6004797843
 30
0.0
 11
194415.5075326751
 21
-180140.6004797843
 31
0.0
  0
LINE
  5
8C94
330
8C8E
100
AcDbEntity
  8
标注
  6
Continuous
 62
     0
 48
5.0
370
    -2
100
AcDbLine
 10
194415.5075326751
 20
-180185.2579267843
 30
0.0
 11
194415.5075326751
 21
-180168.6004797843
 31
0.0
  0
SOLID
  5
8C95
330
8C8E
100
AcDbEntity
  8
标注
 62
     0
 48
5.0
100
AcDbTrace
 10
194413.1741993417
 20
-180199.2579267843
 30
0.0
 11
194417.8408660084
 21
-180199.2579267843
 31
0.0
 12
194415.5075326751
 22
-180185.2579267843
 32
0.0
 13
194415.5075326751
 23
-180185.2579267843
 33
0.0
  0
SOLID
  5
8C96
330
8C8E
100
AcDbEntity
  8
标注
 62
     0
 48
5.0
100
AcDbTrace
 10
194413.1741993417
 20
-180154.6004797843
 30
0.0
 11
194417.8408660084
 21
-180154.6004797843
 31
0.0
 12
194415.5075326751
 22
-180168.6004797843
 32
0.0
 13
194415.5075326751
 23
-180168.6004797843
 33
0.0
  0
MTEXT
  5
8C97
330
8C8E
100
AcDbEntity
  8
标注
 62
     0
 48
5.0
100
AcDbMText
 10
194415.5075326751
 20
-180119.2204797843
 30
0.0
 40
14.0
 41
0.0
 71
     5
 72
     1
  1
16,7
 11
0.0000000000000001
 21
1.0
 31
0.0
 73
     1
 44
1.0
1001
ACAD
1000
MTEXTBEGIN
1070
    73
1070
     1
1070
    44
1040
1.0
1070
    74
1070
     0
1000
MTEXTEND
  0
POINT
  5
8C98
330
8C8E
100
AcDbEntity
  8
DEFPOINTS
 62
     0
 48
5.0
100
AcDbPoint
 10
194412.0984765277
 20
-180185.2579267843
 30
0.0
  0
POINT
  5
8C99
330
8C8E
100
AcDbEntity
  8
DEFPOINTS
 62
     0
 48
5.0
100
AcDbPoint
 10
194412.0984765277
 20
-180168.6004797843
 30
0.0
  0
POINT
  5
8C9A
330
8C8E
100
AcDbEntity
  8
DEFPOINTS
 62
     0
 48
5.0
100
AcDbPoint
 10
194415.5075326751
 20
-180168.6004797843
 30
0.0
  0
ENDBLK
  5
8C9B
330
8C8E
100
AcDbEntity
  8
0
 48
5.0
100
AcDbBlockEnd
  0
BLOCK
  5
8D97
330
8D96
100
AcDbEntity
  8
0
100
AcDbBlockBegin
  2
*D30
 70
     1
 10
0.0
 20
0.0
 30
0.0
  3
*D30
  1

  0
LINE
  5
8E9E
330
8D96
100
AcDbEntity
  8
标注线
 48
5.0
370
    -2
100
AcDbLine
 10
1466.613807820454
 20
131.3586813724769
 30
0.0
 11
1466.613807820454
 21
130.7986813724769
 31
0.0
  0
LINE
  5
8E9F
330
8D96
100
AcDbEntity
  8
标注线
 48
5.0
370
    -2
100
AcDbLine
 10
1467.613805820468
 20
131.3586813724769
 30
0.0
 11
1467.613805820468
 21
130.7986813724769
 31
0.0
  0
LINE
  5
8EA0
330
8D96
100
AcDbEntity
  8
标注线
 48
5.0
370
    -2
100
AcDbLine
 10
1465.963807820454
 20
130.4786813724769
 30
0.0
 11
1465.313807820454
 21
130.4786813724769
 31
0.0
  0
LINE
  5
8EA1
330
8D96
100
AcDbEntity
  8
标注线
 48
5.0
370
    -2
100
AcDbLine
 10
1468.263805820468
 20
130.4786813724769
 30
0.0
 11
1468.913805820468
 21
130.4786813724769
 31
0.0
  0
MTEXT
  5
8EA2
330
8D96
100
AcDbEntity
  8
标注线
 48
5.0
100
AcDbMText
 10
1467.113806820461
 20
132.2276718226815
 30
0.0
 40
0.65
 41
0.0
 71
     5
 72
     1
  1
\A1;1"
 73
     1
 44
1.0
1001
ACAD
1000
MTEXTBEGIN
1070
    73
1070
     1
1070
    44
1040
1.0
1070
    74
1070
     0
1000
MTEXTEND
  0
LINE
  5
8EA3
330
8D96
100
AcDbEntity
  8
标注线
 48
5.0
370
    -2
100
AcDbLine
 10
1466.613807820454
 20
130.4786813724769
 30
0.0
 11
1467.613805820468
 21
130.4786813724769
 31
0.0
  0
SOLID
  5
8EA4
330
8D96
100
AcDbEntity
  8
标注线
 48
5.0
100
AcDbTrace
 10
1465.963807820454
 20
130.5870147058102
 30
0.0
 11
1465.963807820454
 21
130.3703480391436
 31
0.0
 12
1466.613807820454
 22
130.4786813724769
 32
0.0
 13
1466.613807820454
 23
130.4786813724769
 33
0.0
  0
SOLID
  5
8EA5
330
8D96
100
AcDbEntity
  8
标注线
 48
5.0
100
AcDbTrace
 10
1468.263805820468
 20
130.5870147058102
 30
0.0
 11
1468.263805820468
 21
130.3703480391436
 31
0.0
 12
1467.613805820468
 22
130.4786813724769
 32
0.0
 13
1467.613805820468
 23
130.4786813724769
 33
0.0
  0
POINT
  5
8EA6
330
8D96
100
AcDbEntity
  8
DEFPOINTS
 62
     0
 48
5.0
100
AcDbPoint
 10
1466.613807820454
 20
130.4786813724769
 30
0.0
  0
POINT
  5
8EA7
330
8D96
100
AcDbEntity
  8
DEFPOINTS
 62
     0
 48
5.0
100
AcDbPoint
 10
1467.613805820468
 20
130.4786813724769
 30
0.0
  0
POINT
  5
8EA8
330
8D96
100
AcDbEntity
  8
DEFPOINTS
 62
     0
 48
5.0
100
AcDbPoint
 10
1467.613805820468
 20
130.4786813724769
 30
0.0
  0
ENDBLK
  5
8D98
330
8D96
100
AcDbEntity
  8
0
100
AcDbBlockEnd
  0
BLOCK
  5
8DA5
330
8DA4
100
AcDbEntity
  8
0
100
AcDbBlockBegin
  2
*D31
 70
     1
 10
0.0
 20
0.0
 30
0.0
  3
*D31
  1

  0
LINE
  5
8F03
330
8DA4
100
AcDbEntity
  8
标注线
 48
5.0
370
    -2
100
AcDbLine
 10
1440.952439320799
 20
163.6519343935099
 30
0.0
 11
1440.952439320799
 21
159.9852706867439
 31
0.0
  0
LINE
  5
8F04
330
8DA4
100
AcDbEntity
  8
标注线
 48
5.0
370
    -2
100
AcDbLine
 10
1466.275228320127
 20
163.6519343934808
 30
0.0
 11
1466.275228320127
 21
159.9852706867439
 31
0.0
  0
LINE
  5
8F05
330
8DA4
100
AcDbEntity
  8
标注线
 48
5.0
370
    -2
100
AcDbLine
 10
1441.602439320799
 20
160.3052706867439
 30
0.0
 11
1451.631859059208
 21
160.3052706867439
 31
0.0
  0
LINE
  5
8F06
330
8DA4
100
AcDbEntity
  8
标注线
 48
5.0
370
    -2
100
AcDbLine
 10
1465.625228320127
 20
160.3052706867439
 30
0.0
 11
1455.595808581718
 21
160.3052706867439
 31
0.0
  0
SOLID
  5
8F07
330
8DA4
100
AcDbEntity
  8
标注线
 48
5.0
100
AcDbTrace
 10
1441.602439320799
 20
160.4136040200772
 30
0.0
 11
1441.602439320799
 21
160.1969373534106
 31
0.0
 12
1440.952439320799
 22
160.3052706867439
 32
0.0
 13
1440.952439320799
 23
160.3052706867439
 33
0.0
  0
SOLID
  5
8F08
330
8DA4
100
AcDbEntity
  8
标注线
 48
5.0
100
AcDbTrace
 10
1465.625228320127
 20
160.4136040200772
 30
0.0
 11
1465.625228320127
 21
160.1969373534106
 31
0.0
 12
1466.275228320127
 22
160.3052706867439
 32
0.0
 13
1466.275228320127
 23
160.3052706867439
 33
0.0
  0
MTEXT
  5
8F09
330
8DA4
100
AcDbEntity
  8
标注线
 48
5.0
100
AcDbMText
 10
1453.613833820463
 20
160.3052706867439
 30
0.0
 40
0.65
 41
0.0
 71
     5
 72
     1
  1
\A1;(25 3/8")
 73
     1
 44
1.0
1001
ACAD
1000
MTEXTBEGIN
1070
    73
1070
     1
1070
    44
1040
1.0
1070
    74
1070
     0
1000
MTEXTEND
  0
POINT
  5
8F0A
330
8DA4
100
AcDbEntity
  8
DEFPOINTS
 62
     0
 48
5.0
100
AcDbPoint
 10
1440.952439320799
 20
164.5319343935099
 30
0.0
  0
POINT
  5
8F0B
330
8DA4
100
AcDbEntity
  8
DEFPOINTS
 62
     0
 48
5.0
100
AcDbPoint
 10
1466.275228320127
 20
164.5319343934808
 30
0.0
  0
POINT
  5
8F0C
330
8DA4
100
AcDbEntity
  8
DEFPOINTS
 62
     0
 48
5.0
100
AcDbPoint
 10
1466.275228320127
 20
160.3052706867439
 30
0.0
  0
ENDBLK
  5
8DA6
330
8DA4
100
AcDbEntity
  8
0
100
AcDbBlockEnd
  0
BLOCK
  5
8DB3
330
8DB2
100
AcDbEntity
  8
0
100
AcDbBlockBegin
  2
*D32
 70
     1
 10
0.0
 20
0.0
 30
0.0
  3
*D32
  1

  0
LINE
  5
8F5E
330
8DB2
100
AcDbEntity
  8
标注线
 48
5.0
370
    -2
100
AcDbLine
 10
1468.493805820468
 20
165.6191574371432
 30
0.0
 11
1469.779912075976
 21
165.6191574371432
 31
0.0
  0
LINE
  5
8F5F
330
8DB2
100
AcDbEntity
  8
标注线
 48
5.0
370
    -2
100
AcDbLine
 10
1468.004293714753
 20
160.1191779770261
 30
0.0
 11
1469.779912075976
 21
160.1191779770261
 31
0.0
  0
LINE
  5
8F60
330
8DB2
100
AcDbEntity
  8
标注线
 48
5.0
370
    -2
100
AcDbLine
 10
1469.459912075976
 20
164.9691574371432
 30
0.0
 11
1469.459912075976
 21
164.8299875633699
 31
0.0
  0
LINE
  5
8F61
330
8DB2
100
AcDbEntity
  8
标注线
 48
5.0
370
    -2
100
AcDbLine
 10
1469.459912075976
 20
160.7691779770261
 30
0.0
 11
1469.459912075976
 21
161.968289064052
 31
0.0
  0
MTEXT
  5
8F62
330
8DB2
100
AcDbEntity
  8
标注线
 48
5.0
100
AcDbMText
 10
1469.459912075976
 20
163.3991383137112
 30
0.0
 40
0.65
 41
0.0
 71
     5
 72
     1
  1
\A1;5 1/2"
 11
0.0000000000000001
 21
1.0
 31
0.0
 73
     1
 44
1.0
1001
ACAD
1000
MTEXTBEGIN
1070
    73
1070
     1
1070
    44
1040
1.0
1070
    74
1070
     0
1000
MTEXTEND
  0
SOLID
  5
8F63
330
8DB2
100
AcDbEntity
  8
标注线
 48
5.0
100
AcDbTrace
 10
1469.351578742643
 20
164.9691574371432
 30
0.0
 11
1469.568245409309
 21
164.9691574371432
 31
0.0
 12
1469.459912075976
 22
165.6191574371432
 32
0.0
 13
1469.459912075976
 23
165.6191574371432
 33
0.0
  0
SOLID
  5
8F64
330
8DB2
100
AcDbEntity
  8
标注线
 48
5.0
100
AcDbTrace
 10
1469.351578742643
 20
160.7691779770261
 30
0.0
 11
1469.568245409309
 21
160.7691779770261
 31
0.0
 12
1469.459912075976
 22
160.1191779770261
 32
0.0
 13
1469.459912075976
 23
160.1191779770261
 33
0.0
  0
POINT
  5
8F65
330
8DB2
100
AcDbEntity
  8
DEFPOINTS
 62
     0
 48
5.0
100
AcDbPoint
 10
1467.613805820468
 20
165.6191574371432
 30
0.0
  0
POINT
  5
8F66
330
8DB2
100
AcDbEntity
  8
DEFPOINTS
 62
     0
 48
5.0
100
AcDbPoint
 10
1467.124293714753
 20
160.1191779770261
 30
0.0
  0
POINT
  5
8F67
330
8DB2
100
AcDbEntity
  8
DEFPOINTS
 62
     0
 48
5.0
100
AcDbPoint
 10
1469.459912075976
 20
160.1191779770261
 30
0.0
  0
ENDBLK
  5
8DB4
330
8DB2
100
AcDbEntity
  8
0
100
AcDbBlockEnd
  0
BLOCK
  5
8DC1
330
8DC0
100
AcDbEntity
  8
0
100
AcDbBlockBegin
  2
*D33
 70
     1
 10
0.0
 20
0.0
 30
0.0
  3
*D33
  1

  0
ARC
  5
8F17
330
8DC0
100
AcDbEntity
  8
标注线
 48
5.0
370
    -2
100
AcDbCircle
 10
1440.613859820468
 20
169.3676740260833
 30
0.0
 40
2.049122295258144
100
AcDbArc
 50
237.5014685398395
 51
255.7532789592214
  0
ARC
  5
8F18
330
8DC0
100
AcDbEntity
  8
标注线
 48
5.0
370
    -2
100
AcDbCircle
 10
1440.613859820468
 20
169.3676740260833
 30
0.0
 40
2.049122295258144
100
AcDbArc
 50
18.25181041938238
 51
36.50362083876437
  0
ARC
  5
8F19
330
8DC0
100
AcDbEntity
  8
标注线
 48
5.0
370
    -2
100
AcDbCircle
 10
1440.613859820468
 20
169.3676740260833
 30
0.0
 40
2.049122295258144
100
AcDbArc
 50
274.0050893786034
 51
0.0000000000004796
  0
SOLID
  5
8F1A
330
8DC0
100
AcDbEntity
  8
标注线
 48
5.0
100
AcDbTrace
 10
1440.119244697784
 20
167.4894734399104
 30
0.0
 11
1440.099905863663
 21
167.2736715540537
 31
0.0
 12
1440.756980938293
 22
167.3235559946195
 32
0.0
 13
1440.756980938293
 23
167.3235559946195
 33
0.0
  0
SOLID
  5
8F1B
330
8DC0
100
AcDbEntity
  8
标注线
 48
5.0
100
AcDbTrace
 10
1442.666851267553
 20
170.0266286078075
 30
0.0
 11
1442.452927124733
 21
169.99226430128
 31
0.0
 12
1442.662982115726
 22
169.3676740260833
 32
0.0
 13
1442.662982115726
 23
169.3676740260833
 33
0.0
  0
MTEXT
  5
8F1C
330
8DC0
100
AcDbEntity
  8
标注线
 48
5.0
100
AcDbMText
 10
1442.055056688523
 20
167.9110156006337
 30
0.0
 40
0.65
 41
0.0
 71
     5
 72
     1
  1
\A1;86\U+00B0"
 11
0.710869443381044
 21
0.7033239896854969
 31
0.0
 73
     1
 44
1.0
1001
ACAD
1000
MTEXTBEGIN
1070
    73
1070
     1
1070
    44
1040
1.0
1070
    74
1070
     0
1000
MTEXTEND
  0
POINT
  5
8F1D
330
8DC0
100
AcDbEntity
  8
DEFPOINTS
 62
     0
 48
5.0
100
AcDbPoint
 10
1442.411840870238
 20
168.3847364260332
 30
0.0
  0
POINT
  5
8F1E
330
8DC0
100
AcDbEntity
  8
DEFPOINTS
 62
     0
 48
5.0
100
AcDbPoint
 10
1440.620269826818
 20
169.2761235284252
 30
0.0
  0
POINT
  5
8F1F
330
8DC0
100
AcDbEntity
  8
DEFPOINTS
 62
     0
 48
5.0
100
AcDbPoint
 10
1466.705582445517
 20
169.3676740260836
 30
0.0
  0
POINT
  5
8F20
330
8DC0
100
AcDbEntity
  8
DEFPOINTS
 62
     0
 48
5.0
100
AcDbPoint
 10
1440.522085195408
 20
169.3676740260834
 30
0.0
  0
POINT
  5
8F21
330
8DC0
100
AcDbEntity
  8
DEFPOINTS
 62
     0
 48
5.0
100
AcDbPoint
 10
1441.057598201821
 20
163.0300095335388
 30
0.0
  0
ENDBLK
  5
8DC2
330
8DC0
100
AcDbEntity
  8
0
100
AcDbBlockEnd
  0
BLOCK
  5
8DCF
330
8DCE
100
AcDbEntity
  8
0
100
AcDbBlockBegin
  2
*D34
 70
     1
 10
0.0
 20
0.0
 30
0.0
  3
*D34
  1

  0
LINE
  5
8EDB
330
8DCE
100
AcDbEntity
  8
标注线
 48
5.0
370
    -2
100
AcDbLine
 10
1466.903257820461
 20
150.1014171364933
 30
0.0
 11
1470.124833365198
 21
150.1014171364933
 31
0.0
  0
LINE
  5
8EDC
330
8DCE
100
AcDbEntity
  8
标注线
 48
5.0
370
    -2
100
AcDbLine
 10
1466.903257820461
 20
133.6014501365117
 30
0.0
 11
1470.124833365198
 21
133.6014501365117
 31
0.0
  0
LINE
  5
8EDD
330
8DCE
100
AcDbEntity
  8
标注线
 48
5.0
370
    -2
100
AcDbLine
 10
1469.804833365198
 20
149.4514171364933
 30
0.0
 11
1469.804833365198
 21
143.504196255875
 31
0.0
  0
LINE
  5
8EDE
330
8DCE
100
AcDbEntity
  8
标注线
 48
5.0
370
    -2
100
AcDbLine
 10
1469.804833365198
 20
134.2514501365117
 30
0.0
 11
1469.804833365198
 21
140.19867101713
 31
0.0
  0
MTEXT
  5
8EDF
330
8DCE
100
AcDbEntity
  8
标注线
 48
5.0
100
AcDbMText
 10
1469.804833365198
 20
141.8514336365027
 30
0.0
 40
0.65
 41
0.0
 71
     5
 72
     1
  1
\A1;16 1/2"
 11
0.0000000000000001
 21
1.0
 31
0.0
 73
     1
 44
1.0
1001
ACAD
1000
MTEXTBEGIN
1070
    73
1070
     1
1070
    44
1040
1.0
1070
    74
1070
     0
1000
MTEXTEND
  0
SOLID
  5
8EE0
330
8DCE
100
AcDbEntity
  8
标注线
 48
5.0
100
AcDbTrace
 10
1469.696500031865
 20
149.4514171364933
 30
0.0
 11
1469.913166698531
 21
149.4514171364933
 31
0.0
 12
1469.804833365198
 22
150.1014171364933
 32
0.0
 13
1469.804833365198
 23
150.1014171364933
 33
0.0
  0
SOLID
  5
8EE1
330
8DCE
100
AcDbEntity
  8
标注线
 48
5.0
100
AcDbTrace
 10
1469.696500031865
 20
134.2514501365117
 30
0.0
 11
1469.913166698531
 21
134.2514501365117
 31
0.0
 12
1469.804833365198
 22
133.6014501365117
 32
0.0
 13
1469.804833365198
 23
133.6014501365117
 33
0.0
  0
POINT
  5
8EE2
330
8DCE
100
AcDbEntity
  8
DEFPOINTS
 62
     0
 48
5.0
100
AcDbPoint
 10
1466.023257820461
 20
150.1014171364933
 30
0.0
  0
POINT
  5
8EE3
330
8DCE
100
AcDbEntity
  8
DEFPOINTS
 62
     0
 48
5.0
100
AcDbPoint
 10
1466.023257820461
 20
133.6014501365117
 30
0.0
  0
POINT
  5
8EE4
330
8DCE
100
AcDbEntity
  8
DEFPOINTS
 62
     0
 48
5.0
100
AcDbPoint
 10
1469.804833365198
 20
133.6014501365117
 30
0.0
  0
ENDBLK
  5
8DD0
330
8DCE
100
AcDbEntity
  8
0
100
AcDbBlockEnd
  0
BLOCK
  5
8DDD
330
8DDC
100
AcDbEntity
  8
0
100
AcDbBlockBegin
  2
*D35
 70
     1
 10
0.0
 20
0.0
 30
0.0
  3
*D35
  1

  0
LINE
  5
8EBD
330
8DDC
100
AcDbEntity
  8
标注线
 48
5.0
370
    -2
100
AcDbLine
 10
1467.560736820448
 20
151.1014151365071
 30
0.0
 11
1471.989483215637
 21
151.1014151365071
 31
0.0
  0
LINE
  5
8EBE
330
8DDC
100
AcDbEntity
  8
标注线
 48
5.0
370
    -2
100
AcDbLine
 10
1467.493807820454
 20
132.6014521364978
 30
0.0
 11
1471.989483215637
 21
132.6014521364978
 31
0.0
  0
LINE
  5
8EBF
330
8DDC
100
AcDbEntity
  8
标注线
 48
5.0
370
    -2
100
AcDbLine
 10
1471.669483215636
 20
150.4514151365071
 30
0.0
 11
1471.669483215636
 21
143.504196255875
 31
0.0
  0
LINE
  5
8EC0
330
8DDC
100
AcDbEntity
  8
标注线
 48
5.0
370
    -2
100
AcDbLine
 10
1471.669483215636
 20
133.2514521364978
 30
0.0
 11
1471.669483215636
 21
140.19867101713
 31
0.0
  0
MTEXT
  5
8EC1
330
8DDC
100
AcDbEntity
  8
标注线
 48
5.0
100
AcDbMText
 10
1471.669483215636
 20
141.8514336365027
 30
0.0
 40
0.65
 41
0.0
 71
     5
 72
     1
  1
\A1;18 1/2"
 11
0.0000000000000001
 21
1.0
 31
0.0
 73
     1
 44
1.0
1001
ACAD
1000
MTEXTBEGIN
1070
    73
1070
     1
1070
    44
1040
1.0
1070
    74
1070
     0
1000
MTEXTEND
  0
SOLID
  5
8EC2
330
8DDC
100
AcDbEntity
  8
标注线
 48
5.0
100
AcDbTrace
 10
1471.561149882303
 20
150.4514151365071
 30
0.0
 11
1471.77781654897
 21
150.4514151365071
 31
0.0
 12
1471.669483215636
 22
151.1014151365071
 32
0.0
 13
1471.669483215636
 23
151.1014151365071
 33
0.0
  0
SOLID
  5
8EC3
330
8DDC
100
AcDbEntity
  8
标注线
 48
5.0
100
AcDbTrace
 10
1471.561149882303
 20
133.2514521364978
 30
0.0
 11
1471.77781654897
 21
133.2514521364978
 31
0.0
 12
1471.669483215636
 22
132.6014521364978
 32
0.0
 13
1471.669483215636
 23
132.6014521364978
 33
0.0
  0
POINT
  5
8EC4
330
8DDC
100
AcDbEntity
  8
DEFPOINTS
 62
     0
 48
5.0
100
AcDbPoint
 10
1466.680736820447
 20
151.1014151365071
 30
0.0
  0
POINT
  5
8EC5
330
8DDC
100
AcDbEntity
  8
DEFPOINTS
 62
     0
 48
5.0
100
AcDbPoint
 10
1466.613807820454
 20
132.6014521364978
 30
0.0
  0
POINT
  5
8EC6
330
8DDC
100
AcDbEntity
  8
DEFPOINTS
 62
     0
 48
5.0
100
AcDbPoint
 10
1471.669483215636
 20
132.6014521364978
 30
0.0
  0
ENDBLK
  5
8DDE
330
8DDC
100
AcDbEntity
  8
0
100
AcDbBlockEnd
  0
BLOCK
  5
8DEB
330
8DEA
100
AcDbEntity
  8
0
100
AcDbBlockBegin
  2
*D36
 70
     1
 10
0.0
 20
0.0
 30
0.0
  3
*D36
  1

  0
LINE
  5
8ED1
330
8DEA
100
AcDbEntity
  8
标注线
 48
5.0
370
    -2
100
AcDbLine
 10
1439.613861820458
 20
132.6545211365185
 30
0.0
 11
1439.613861820458
 21
128.2923626031896
 31
0.0
  0
LINE
  5
8ED2
330
8DEA
100
AcDbEntity
  8
标注线
 48
5.0
370
    -2
100
AcDbLine
 10
1467.613805820468
 20
132.8240455406805
 30
0.0
 11
1467.613805820468
 21
128.2923626031896
 31
0.0
  0
LINE
  5
8ED3
330
8DEA
100
AcDbEntity
  8
标注线
 48
5.0
370
    -2
100
AcDbLine
 10
1440.263861820458
 20
128.6123626031896
 30
0.0
 11
1452.68223422974
 21
128.6123626031896
 31
0.0
  0
LINE
  5
8ED4
330
8DEA
100
AcDbEntity
  8
标注线
 48
5.0
370
    -2
100
AcDbLine
 10
1466.963805820468
 20
128.6123626031896
 30
0.0
 11
1454.545433411186
 21
128.6123626031896
 31
0.0
  0
SOLID
  5
8ED5
330
8DEA
100
AcDbEntity
  8
标注线
 48
5.0
100
AcDbTrace
 10
1440.263861820458
 20
128.7206959365229
 30
0.0
 11
1440.263861820458
 21
128.5040292698562
 31
0.0
 12
1439.613861820458
 22
128.6123626031896
 32
0.0
 13
1439.613861820458
 23
128.6123626031896
 33
0.0
  0
SOLID
  5
8ED6
330
8DEA
100
AcDbEntity
  8
标注线
 48
5.0
100
AcDbTrace
 10
1466.963805820468
 20
128.7206959365229
 30
0.0
 11
1466.963805820468
 21
128.5040292698562
 31
0.0
 12
1467.613805820468
 22
128.6123626031896
 32
0.0
 13
1467.613805820468
 23
128.6123626031896
 33
0.0
  0
MTEXT
  5
8ED7
330
8DEA
100
AcDbEntity
  8
标注线
 48
5.0
100
AcDbMText
 10
1453.613833820463
 20
128.6123626031896
 30
0.0
 40
0.65
 41
0.0
 71
     5
 72
     1
  1
\A1;28"
 73
     1
 44
1.0
1001
ACAD
1000
MTEXTBEGIN
1070
    73
1070
     1
1070
    44
1040
1.0
1070
    74
1070
     0
1000
MTEXTEND
  0
POINT
  5
8ED8
330
8DEA
100
AcDbEntity
  8
DEFPOINTS
 62
     0
 48
5.0
100
AcDbPoint
 10
1439.613861820458
 20
133.5345211365185
 30
0.0
  0
POINT
  5
8ED9
330
8DEA
100
AcDbEntity
  8
DEFPOINTS
 62
     0
 48
5.0
100
AcDbPoint
 10
1467.613805820468
 20
133.7040455406805
 30
0.0
  0
POINT
  5
8EDA
330
8DEA
100
AcDbEntity
  8
DEFPOINTS
 62
     0
 48
5.0
100
AcDbPoint
 10
1467.613805820468
 20
128.6123626031896
 30
0.0
  0
ENDBLK
  5
8DEC
330
8DEA
100
AcDbEntity
  8
0
100
AcDbBlockEnd
  0
BLOCK
  5
8DF9
330
8DF8
100
AcDbEntity
  8
0
100
AcDbBlockBegin
  2
*D37
 70
     1
 10
0.0
 20
0.0
 30
0.0
  3
*D37
  1

  0
LINE
  5
8EA9
330
8DF8
100
AcDbEntity
  8
标注线
 48
5.0
370
    -2
100
AcDbLine
 10
1440.613859820472
 20
133.4077742967376
 30
0.0
 11
1440.613859820472
 21
130.1586813724769
 31
0.0
  0
LINE
  5
8EAA
330
8DF8
100
AcDbEntity
  8
标注线
 48
5.0
370
    -2
100
AcDbLine
 10
1466.613807820454
 20
133.3120001365053
 30
0.0
 11
1466.613807820454
 21
130.1586813724769
 31
0.0
  0
LINE
  5
8EAB
330
8DF8
100
AcDbEntity
  8
标注线
 48
5.0
370
    -2
100
AcDbLine
 10
1441.263859820472
 20
130.4786813724769
 30
0.0
 11
1452.68223422974
 21
130.4786813724769
 31
0.0
  0
LINE
  5
8EAC
330
8DF8
100
AcDbEntity
  8
标注线
 48
5.0
370
    -2
100
AcDbLine
 10
1465.963807820454
 20
130.4786813724769
 30
0.0
 11
1454.545433411186
 21
130.4786813724769
 31
0.0
  0
SOLID
  5
8EAD
330
8DF8
100
AcDbEntity
  8
标注线
 48
5.0
100
AcDbTrace
 10
1441.263859820472
 20
130.5870147058102
 30
0.0
 11
1441.263859820472
 21
130.3703480391436
 31
0.0
 12
1440.613859820472
 22
130.4786813724769
 32
0.0
 13
1440.613859820472
 23
130.4786813724769
 33
0.0
  0
SOLID
  5
8EAE
330
8DF8
100
AcDbEntity
  8
标注线
 48
5.0
100
AcDbTrace
 10
1465.963807820454
 20
130.5870147058102
 30
0.0
 11
1465.963807820454
 21
130.3703480391436
 31
0.0
 12
1466.613807820454
 22
130.4786813724769
 32
0.0
 13
1466.613807820454
 23
130.4786813724769
 33
0.0
  0
MTEXT
  5
8EAF
330
8DF8
100
AcDbEntity
  8
标注线
 48
5.0
100
AcDbMText
 10
1453.613833820463
 20
130.4786813724769
 30
0.0
 40
0.65
 41
0.0
 71
     5
 72
     1
  1
\A1;26"
 73
     1
 44
1.0
1001
ACAD
1000
MTEXTBEGIN
1070
    73
1070
     1
1070
    44
1040
1.0
1070
    74
1070
     0
1000
MTEXTEND
  0
POINT
  5
8EB0
330
8DF8
100
AcDbEntity
  8
DEFPOINTS
 62
     0
 48
5.0
100
AcDbPoint
 10
1440.613859820472
 20
134.2877742967376
 30
0.0
  0
POINT
  5
8EB1
330
8DF8
100
AcDbEntity
  8
DEFPOINTS
 62
     0
 48
5.0
100
AcDbPoint
 10
1466.613807820454
 20
134.1920001365052
 30
0.0
  0
POINT
  5
8EB2
330
8DF8
100
AcDbEntity
  8
DEFPOINTS
 62
     0
 48
5.0
100
AcDbPoint
 10
1466.613807820454
 20
130.4786813724769
 30
0.0
  0
ENDBLK
  5
8DFA
330
8DF8
100
AcDbEntity
  8
0
100
AcDbBlockEnd
  0
BLOCK
  5
8E12
330
8E11
100
AcDbEntity
  8
0
100
AcDbBlockBegin
  2
*D38
 70
     1
 10
0.0
 20
0.0
 30
0.0
  3
*D38
  1

  0
LINE
  5
8EF9
330
8E11
100
AcDbEntity
  8
标注线
 48
5.0
370
    -2
100
AcDbLine
 10
1441.530722475059
 20
163.1027306223143
 30
0.0
 11
1441.530722475059
 21
161.5268067058112
 31
0.0
  0
LINE
  5
8EFA
330
8E11
100
AcDbEntity
  8
标注线
 48
5.0
370
    -2
100
AcDbLine
 10
1465.877119790968
 20
163.1060337331466
 30
0.0
 11
1465.877119790968
 21
161.5268067058112
 31
0.0
  0
LINE
  5
8EFB
330
8E11
100
AcDbEntity
  8
标注线
 48
5.0
370
    -2
100
AcDbLine
 10
1442.180722475059
 20
161.8468067058112
 30
0.0
 11
1451.721946371758
 21
161.8468067058112
 31
0.0
  0
LINE
  5
8EFC
330
8E11
100
AcDbEntity
  8
标注线
 48
5.0
370
    -2
100
AcDbLine
 10
1465.227119790968
 20
161.8468067058112
 30
0.0
 11
1455.685895894268
 21
161.8468067058112
 31
0.0
  0
MTEXT
  5
8EFD
330
8E11
100
AcDbEntity
  8
标注线
 48
5.0
100
AcDbMText
 10
1453.703921133013
 20
161.8468067058112
 30
0.0
 40
0.65
 41
0.0
 71
     5
 72
     1
  1
\A1;(24 3/8")
 73
     1
 44
1.0
1001
ACAD
1000
MTEXTBEGIN
1070
    73
1070
     1
1070
    44
1040
1.0
1070
    74
1070
     0
1000
MTEXTEND
  0
SOLID
  5
8EFE
330
8E11
100
AcDbEntity
  8
标注线
 48
5.0
100
AcDbTrace
 10
1442.180722475059
 20
161.9551400391445
 30
0.0
 11
1442.180722475059
 21
161.7384733724779
 31
0.0
 12
1441.530722475059
 22
161.8468067058112
 32
0.0
 13
1441.530722475059
 23
161.8468067058112
 33
0.0
  0
SOLID
  5
8EFF
330
8E11
100
AcDbEntity
  8
标注线
 48
5.0
100
AcDbTrace
 10
1465.227119790968
 20
161.9551400391445
 30
0.0
 11
1465.227119790968
 21
161.7384733724779
 31
0.0
 12
1465.877119790968
 22
161.8468067058112
 32
0.0
 13
1465.877119790968
 23
161.8468067058112
 33
0.0
  0
POINT
  5
8F00
330
8E11
100
AcDbEntity
  8
DEFPOINTS
 62
     0
 48
5.0
100
AcDbPoint
 10
1441.530722475059
 20
163.9827306223143
 30
0.0
  0
POINT
  5
8F01
330
8E11
100
AcDbEntity
  8
DEFPOINTS
 62
     0
 48
5.0
100
AcDbPoint
 10
1465.877119790968
 20
163.9860337331466
 30
0.0
  0
POINT
  5
8F02
330
8E11
100
AcDbEntity
  8
DEFPOINTS
 62
     0
 48
5.0
100
AcDbPoint
 10
1465.877119790968
 20
161.8468067058112
 30
0.0
  0
ENDBLK
  5
8E13
330
8E11
100
AcDbEntity
  8
0
100
AcDbBlockEnd
  0
BLOCK
  5
8E2B
330
8E2A
100
AcDbEntity
  8
0
100
AcDbBlockBegin
  2
*D39
 70
     1
 10
0.0
 20
0.0
 30
0.0
  3
*D39
  1

  0
LINE
  5
8EE5
330
8E2A
100
AcDbEntity
  8
标注线
 48
5.0
370
    -2
100
AcDbLine
 10
1440.535119820475
 20
101.4658023082664
 30
0.0
 11
1440.535119820475
 21
98.85481829680289
 31
0.0
  0
LINE
  5
8EE6
330
8E2A
100
AcDbEntity
  8
标注线
 48
5.0
370
    -2
100
AcDbLine
 10
1466.692547820481
 20
101.4658023082664
 30
0.0
 11
1466.692547820481
 21
98.85481829680289
 31
0.0
  0
LINE
  5
8EE7
330
8E2A
100
AcDbEntity
  8
标注线
 48
5.0
370
    -2
100
AcDbLine
 10
1441.185119820475
 20
99.17481829680289
 30
0.0
 11
1451.924935457586
 21
99.17481829680289
 31
0.0
  0
LINE
  5
8EE8
330
8E2A
100
AcDbEntity
  8
标注线
 48
5.0
370
    -2
100
AcDbLine
 10
1466.042547820481
 20
99.17481829680289
 30
0.0
 11
1455.30273218337
 21
99.17481829680289
 31
0.0
  0
SOLID
  5
8EE9
330
8E2A
100
AcDbEntity
  8
标注线
 48
5.0
100
AcDbTrace
 10
1441.185119820475
 20
99.28315163013621
 30
0.0
 11
1441.185119820475
 21
99.06648496346955
 31
0.0
 12
1440.535119820475
 22
99.17481829680289
 32
0.0
 13
1440.535119820475
 23
99.17481829680289
 33
0.0
  0
SOLID
  5
8EEA
330
8E2A
100
AcDbEntity
  8
标注线
 48
5.0
100
AcDbTrace
 10
1466.042547820481
 20
99.28315163013621
 30
0.0
 11
1466.042547820481
 21
99.06648496346955
 31
0.0
 12
1466.692547820481
 22
99.17481829680289
 32
0.0
 13
1466.692547820481
 23
99.17481829680289
 33
0.0
  0
MTEXT
  5
8EEB
330
8E2A
100
AcDbEntity
  8
标注线
 48
5.0
100
AcDbMText
 10
1453.613833820478
 20
99.17481829680289
 30
0.0
 40
0.65
 41
0.0
 71
     5
 72
     1
  1
\A1;26 1/8"
 73
     1
 44
1.0
1001
ACAD
1000
MTEXTBEGIN
1070
    73
1070
     1
1070
    44
1040
1.0
1070
    74
1070
     0
1000
MTEXTEND
  0
POINT
  5
8EEC
330
8E2A
100
AcDbEntity
  8
DEFPOINTS
 62
     0
 48
5.0
100
AcDbPoint
 10
1440.535119820475
 20
102.3458023082664
 30
0.0
  0
POINT
  5
8EED
330
8E2A
100
AcDbEntity
  8
DEFPOINTS
 62
     0
 48
5.0
100
AcDbPoint
 10
1466.692547820481
 20
102.3458023082664
 30
0.0
  0
POINT
  5
8EEE
330
8E2A
100
AcDbEntity
  8
DEFPOINTS
 62
     0
 48
5.0
100
AcDbPoint
 10
1466.692547820481
 20
99.17481829680289
 30
0.0
  0
ENDBLK
  5
8E2C
330
8E2A
100
AcDbEntity
  8
0
100
AcDbBlockEnd
  0
BLOCK
  5
8E39
330
8E38
100
AcDbEntity
  8
0
100
AcDbBlockBegin
  2
*D40
 70
     1
 10
0.0
 20
0.0
 30
0.0
  3
*D40
  1

  0
LINE
  5
8EC7
330
8E38
100
AcDbEntity
  8
标注线
 48
5.0
370
    -2
100
AcDbLine
 10
1466.341599368776
 20
101.3779198426911
 30
0.0
 11
1469.190655516074
 21
101.3779198426911
 31
0.0
  0
LINE
  5
8EC8
330
8E38
100
AcDbEntity
  8
标注线
 48
5.0
370
    -2
100
AcDbLine
 10
1466.341599368776
 20
118.0353668426961
 30
0.0
 11
1469.190655516074
 21
118.0353668426961
 31
0.0
  0
LINE
  5
8EC9
330
8E38
100
AcDbEntity
  8
标注线
 48
5.0
370
    -2
100
AcDbLine
 10
1468.870655516074
 20
102.0279198426911
 30
0.0
 11
1468.870655516074
 21
108.0538807233212
 31
0.0
  0
LINE
  5
8ECA
330
8E38
100
AcDbEntity
  8
标注线
 48
5.0
370
    -2
100
AcDbLine
 10
1468.870655516074
 20
117.3853668426961
 30
0.0
 11
1468.870655516074
 21
111.359405962066
 31
0.0
  0
SOLID
  5
8ECB
330
8E38
100
AcDbEntity
  8
标注线
 48
5.0
100
AcDbTrace
 10
1468.762322182741
 20
102.0279198426911
 30
0.0
 11
1468.978988849407
 21
102.0279198426911
 31
0.0
 12
1468.870655516074
 22
101.3779198426911
 32
0.0
 13
1468.870655516074
 23
101.3779198426911
 33
0.0
  0
SOLID
  5
8ECC
330
8E38
100
AcDbEntity
  8
标注线
 48
5.0
100
AcDbTrace
 10
1468.762322182741
 20
117.3853668426961
 30
0.0
 11
1468.978988849407
 21
117.3853668426961
 31
0.0
 12
1468.870655516074
 22
118.0353668426961
 32
0.0
 13
1468.870655516074
 23
118.0353668426961
 33
0.0
  0
MTEXT
  5
8ECD
330
8E38
100
AcDbEntity
  8
标注线
 48
5.0
100
AcDbMText
 10
1468.870655516074
 20
109.7066433426938
 30
0.0
 40
0.65
 41
0.0
 71
     5
 72
     1
  1
\A1;16 5/8"
 11
0.0000000000000001
 21
1.0
 31
0.0
 73
     1
 44
1.0
1001
ACAD
1000
MTEXTBEGIN
1070
    73
1070
     1
1070
    44
1040
1.0
1070
    74
1070
     0
1000
MTEXTEND
  0
POINT
  5
8ECE
330
8E38
100
AcDbEntity
  8
DEFPOINTS
 62
     0
 48
5.0
100
AcDbPoint
 10
1465.461599368776
 20
101.3779198426911
 30
0.0
  0
POINT
  5
8ECF
330
8E38
100
AcDbEntity
  8
DEFPOINTS
 62
     0
 48
5.0
100
AcDbPoint
 10
1465.461599368776
 20
118.0353668426961
 30
0.0
  0
POINT
  5
8ED0
330
8E38
100
AcDbEntity
  8
DEFPOINTS
 62
     0
 48
5.0
100
AcDbPoint
 10
1468.870655516074
 20
118.0353668426961
 30
0.0
  0
ENDBLK
  5
8E3A
330
8E38
100
AcDbEntity
  8
0
100
AcDbBlockEnd
  0
BLOCK
  5
8FA0
330
8F9F
100
AcDbEntity
  8
0
 48
5.0
100
AcDbBlockBegin
  2
U
 70
     0
 10
0.0
 20
0.0
 30
0.0
  3
U
  1

  0
LINE
  5
8FA1
330
8F9F
100
AcDbEntity
  8
剖面线
100
AcDbLine
 10
29270.83430877618
 20
-102712.7043205142
 30
0.0
 11
29270.83430877618
 21
-102699.7043205142
 31
0.0
  0
LINE
  5
8FA2
330
8F9F
100
AcDbEntity
  8
剖面线
100
AcDbLine
 10
29269.71479658118
 20
-102709.5287107577
 30
0.0
 11
29270.43918682517
 21
-102712.7482229532
 31
0.0
  0
ARC
  5
8FA3
330
8F9F
100
AcDbEntity
  8
剖面线
100
AcDbCircle
 10
29270.63430877618
 20
-102712.7043205142
 30
0.0
 40
0.2
100
AcDbArc
 50
192.6803834918706
 51
0.0
  0
ARC
  5
8FA4
330
8F9F
100
AcDbEntity
  8
剖面线
100
AcDbCircle
 10
29270.63430877618
 20
-102712.7043205142
 30
0.0
 40
1.0
100
AcDbArc
 50
192.6803834918706
 51
0.0
  0
LINE
  5
8FA5
330
8F9F
100
AcDbEntity
  8
剖面线
100
AcDbLine
 10
29269.65869902019
 20
-102712.9238327092
 30
0.0
 11
29268.93430877619
 21
-102709.7043205142
 31
0.0
  0
LINE
  5
8FA6
330
8F9F
100
AcDbEntity
  8
剖面线
100
AcDbLine
 10
29268.93430877619
 20
-102709.7043205142
 30
0.0
 11
29269.71479658118
 21
-102709.5287107577
 31
0.0
  0
LINE
  5
8FA7
330
8F9F
100
AcDbEntity
  8
剖面线
100
AcDbLine
 10
29271.63430877616
 20
-102699.7043205142
 30
0.0
 11
29271.63430877616
 21
-102712.7043205142
 31
0.0
  0
ARC
  5
8FA8
330
8F9F
100
AcDbEntity
  8
剖面线
100
AcDbCircle
 10
29269.63430877619
 20
-102699.7043205142
 30
0.0
 40
2.0
100
AcDbArc
 50
0.0
 51
90.0
  0
ARC
  5
8FA9
330
8F9F
100
AcDbEntity
  8
剖面线
100
AcDbCircle
 10
29269.63430877619
 20
-102699.7043205142
 30
0.0
 40
1.199999999999999
100
AcDbArc
 50
0.0
 51
90.0
  0
LINE
  5
8FAA
330
8F9F
100
AcDbEntity
  8
剖面线
100
AcDbLine
 10
29269.63430877619
 20
-102698.5043205142
 30
0.0
 11
29261.63430877616
 21
-102698.5043205142
 31
0.0
  0
LINE
  5
8FAB
330
8F9F
100
AcDbEntity
  8
剖面线
100
AcDbLine
 10
29269.63430877619
 20
-102697.7043205142
 30
0.0
 11
29261.63430877616
 21
-102697.7043205142
 31
0.0
  0
ARC
  5
8FAC
330
8F9F
100
AcDbEntity
  8
剖面线
100
AcDbCircle
 10
29261.63430877616
 20
-102699.7043205142
 30
0.0
 40
1.199999999999999
100
AcDbArc
 50
90.0
 51
180.0
  0
ARC
  5
8FAD
330
8F9F
100
AcDbEntity
  8
剖面线
100
AcDbCircle
 10
29261.63430877616
 20
-102699.7043205142
 30
0.0
 40
2.0
100
AcDbArc
 50
90.0
 51
180.0
  0
LINE
  5
8FAE
330
8F9F
100
AcDbEntity
  8
剖面线
100
AcDbLine
 10
29260.43430877617
 20
-102699.7043205142
 30
0.0
 11
29260.43430877617
 21
-102712.7043205142
 31
0.0
  0
LINE
  5
8FAF
330
8F9F
100
AcDbEntity
  8
剖面线
100
AcDbLine
 10
29259.63430877619
 20
-102712.7043205142
 30
0.0
 11
29259.63430877619
 21
-102699.7043205142
 31
0.0
  0
ARC
  5
8FB0
330
8F9F
100
AcDbEntity
  8
剖面线
100
AcDbCircle
 10
29260.63430877618
 20
-102712.7043205142
 30
0.0
 40
1.0
100
AcDbArc
 50
180.0
 51
347.3196165081294
  0
ARC
  5
8FB1
330
8F9F
100
AcDbEntity
  8
剖面线
100
AcDbCircle
 10
29260.63430877618
 20
-102712.7043205142
 30
0.0
 40
0.2
100
AcDbArc
 50
180.0
 51
347.3196165081294
  0
LINE
  5
8FB2
330
8F9F
100
AcDbEntity
  8
剖面线
100
AcDbLine
 10
29260.82943072718
 20
-102712.7482229532
 30
0.0
 11
29261.55382097117
 21
-102709.5287107577
 31
0.0
  0
LINE
  5
8FB3
330
8F9F
100
AcDbEntity
  8
剖面线
100
AcDbLine
 10
29262.33430877616
 20
-102709.7043205142
 30
0.0
 11
29261.60991853216
 21
-102712.9238327092
 31
0.0
  0
LINE
  5
8FB4
330
8F9F
100
AcDbEntity
  8
剖面线
100
AcDbLine
 10
29261.55382097117
 20
-102709.5287107577
 30
0.0
 11
29262.33430877616
 21
-102709.7043205142
 31
0.0
  0
HATCH
  5
8FB5
330
8F9F
100
AcDbEntity
  8
剖面线
 48
5.0
100
AcDbHatch
 10
0.0
 20
0.0
 30
0.0
210
0.0
220
0.0
230
1.0
  2
ANSI31
 70
     0
 71
     0
 91
        1
 92
        7
 72
     1
 73
     1
 93
       14
 10
29259.63430877619
 20
-102699.7043205142
 42
-0.4142090931800507
 10
29261.63427825858
 20
-102697.7043205145
 42
-0.0000038146972658
 10
29261.63430877616
 20
-102697.7043205142
 42
0.0
 10
29266.26643298832
 20
-102697.7043205142
 42
0.0
 10
29266.26643298831
 20
-102698.5043205142
 42
0.0
 10
29261.63430877616
 20
-102698.5043205142
 42
0.4142135623713193
 10
29260.43430877617
 20
-102699.7043205142
 42
0.0
 10
29260.43430877617
 20
-102712.7043205142
 42
0.8950427888177971
 10
29260.82943072718
 20
-102712.7482229532
 42
0.0
 10
29261.55382097116
 20
-102709.5287107577
 42
0.0
 10
29262.33430877615
 20
-102709.7043205142
 42
0.0
 10
29261.60991853214
 20
-102712.9238327093
 42
-0.8894303225498207
 10
29259.63438689201
 20
-102712.7168195371
 42
-0.003124847264985
 10
29259.63430877619
 20
-102712.7043205143
 42
0.0
 97
        0
 75
     0
 76
     1
 52
90.0
 41
5.0
 77
     0
 78
     1
 53
45.0
 43
72640.05950440644
 44
-29265.22624984574
 45
0.4419417382415923
 46
-0.4419417382415922
 79
     0
 47
0.0791463826083633
 98
        1
 10
29260.01089251075
 20
-102705.3355668703
  0
HATCH
  5
8FB6
330
8F9F
100
AcDbEntity
  8
剖面线
 48
5.0
100
AcDbHatch
 10
0.0
 20
0.0
 30
0.0
210
0.0
220
0.0
230
1.0
  2
ANSI31
 70
     0
 71
     0
 91
        1
 92
        7
 72
     1
 73
     1
 93
       14
 10
29271.63430877616
 20
-102699.7043205142
 42
0.4142090931800507
 10
29269.63433929376
 20
-102697.7043205145
 42
0.0000038146972658
 10
29269.63430877619
 20
-102697.7043205142
 42
0.0
 10
29265.00218456403
 20
-102697.7043205142
 42
0.0
 10
29265.00218456404
 20
-102698.5043205142
 42
0.0
 10
29269.63430877619
 20
-102698.5043205142
 42
-0.4142135623713193
 10
29270.83430877618
 20
-102699.7043205142
 42
0.0
 10
29270.83430877618
 20
-102712.7043205142
 42
-0.8950427888177971
 10
29270.43918682517
 20
-102712.7482229532
 42
0.0
 10
29269.71479658119
 20
-102709.5287107577
 42
0.0
 10
29268.9343087762
 20
-102709.7043205142
 42
0.0
 10
29269.65869902021
 20
-102712.9238327093
 42
0.8894303225498207
 10
29271.63423066034
 20
-102712.7168195371
 42
0.003124847264985
 10
29271.63430877616
 20
-102712.7043205143
 42
0.0
 97
        0
 75
     0
 76
     1
 52
90.0
 41
5.0
 77
     0
 78
     1
 53
45.0
 43
72640.05950440644
 44
-29265.22624984574
 45
0.4419417382415923
 46
-0.4419417382415922
 79
     0
 47
0.0791463826083633
 98
        1
 10
29271.2577250416
 20
-102705.3355668703
  0
HATCH
  5
8FB7
330
8F9F
100
AcDbEntity
  8
剖面线
 48
5.0
100
AcDbHatch
 10
0.0
 20
0.0
 30
0.0
210
0.0
220
0.0
230
1.0
  2
ANSI31
 70
     0
 71
     0
 91
        1
 92
        7
 72
     1
 73
     1
 93
       14
 10
29259.63430877617
 20
-102699.7043205142
 42
-0.4142090931800507
 10
29261.63427825857
 20
-102697.7043205145
 42
-0.0000038146972658
 10
29261.63430877615
 20
-102697.7043205142
 42
0.0
 10
29266.2664329883
 20
-102697.7043205142
 42
0.0
 10
29266.26643298829
 20
-102698.5043205142
 42
0.0
 10
29261.63430877615
 20
-102698.5043205142
 42
0.4142135623713193
 10
29260.43430877616
 20
-102699.7043205142
 42
0.0
 10
29260.43430877616
 20
-102712.7043205142
 42
0.8950427888177971
 10
29260.82943072716
 20
-102712.7482229532
 42
0.0
 10
29261.55382097115
 20
-102709.5287107577
 42
0.0
 10
29262.33430877613
 20
-102709.7043205142
 42
0.0
 10
29261.60991853213
 20
-102712.9238327093
 42
-0.8894303225498207
 10
29259.634386892
 20
-102712.7168195371
 42
-0.003124847264985
 10
29259.63430877617
 20
-102712.7043205143
 42
0.0
 97
        0
 75
     0
 76
     1
 52
90.0
 41
5.0
 77
     0
 78
     1
 53
45.0
 43
72640.05950440641
 44
-29265.22624984574
 45
0.4419417382415923
 46
-0.4419417382415922
 79
     0
 47
0.0791463826083633
 98
        1
 10
29260.01089251073
 20
-102705.3355668703
  0
ENDBLK
  5
8FB8
330
8F9F
100
AcDbEntity
  8
0
 48
5.0
100
AcDbBlockEnd
  0
BLOCK
  5
8FBA
330
8FB9
100
AcDbEntity
  8
0
 48
5.0
100
AcDbBlockBegin
  2
*D42
 70
     1
 10
0.0
 20
0.0
 30
0.0
  3
*D42
  1

  0
LINE
  5
8FBB
330
8FB9
100
AcDbEntity
  8
标注
 62
     0
 48
5.0
370
    -2
100
AcDbLine
 10
170053.7975601418
 20
-65637.51038444224
 30
0.0
 11
170047.8220456506
 21
-65637.51038444224
 31
0.0
  0
LINE
  5
8FBC
330
8FB9
100
AcDbEntity
  8
标注
 62
     0
 48
5.0
370
    -2
100
AcDbLine
 10
170052.3676717006
 20
-65646.51085720758
 30
0.0
 11
170047.8220456506
 21
-65646.51085720758
 31
0.0
  0
LINE
  5
8FBD
330
8FB9
100
AcDbEntity
  8
标注
 62
     0
 48
5.0
370
    -2
100
AcDbLine
 10
170045.8220456506
 20
-65625.51038444224
 30
0.0
 11
170045.8220456506
 21
-65613.51038444224
 31
0.0
  0
LINE
  5
8FBE
330
8FB9
100
AcDbEntity
  8
标注
 62
     0
 48
5.0
370
    -2
100
AcDbLine
 10
170045.8220456506
 20
-65658.51085720758
 30
0.0
 11
170045.8220456506
 21
-65670.51085720758
 31
0.0
  0
LINE
  5
8FBF
330
8FB9
100
AcDbEntity
  8
标注
 62
     0
 48
5.0
370
    -2
100
AcDbLine
 10
170045.8220456506
 20
-65637.51038444224
 30
0.0
 11
170045.8220456506
 21
-65646.51085720758
 31
0.0
  0
SOLID
  5
8FC0
330
8FB9
100
AcDbEntity
  8
标注
 62
     0
 48
5.0
100
AcDbTrace
 10
170043.8220456506
 20
-65625.51038444224
 30
0.0
 11
170047.8220456506
 21
-65625.51038444224
 31
0.0
 12
170045.8220456506
 22
-65637.51038444224
 32
0.0
 13
170045.8220456506
 23
-65637.51038444224
 33
0.0
  0
SOLID
  5
8FC1
330
8FB9
100
AcDbEntity
  8
标注
 62
     0
 48
5.0
100
AcDbTrace
 10
170043.8220456506
 20
-65658.51085720758
 30
0.0
 11
170047.8220456506
 21
-65658.51085720758
 31
0.0
 12
170045.8220456506
 22
-65646.51085720758
 32
0.0
 13
170045.8220456506
 23
-65646.51085720758
 33
0.0
  0
MTEXT
  5
8FC2
330
8FB9
100
AcDbEntity
  8
标注
 62
     0
 48
5.0
100
AcDbMText
 10
170045.8220456507
 20
-65642.01062082489
 30
0.0
 40
12.0
 41
0.0
 71
     5
 72
     1
  1
9
 11
0.0000000000000001
 21
1.0
 31
0.0
 73
     1
 44
1.0
1001
ACAD
1000
MTEXTBEGIN
1070
    73
1070
     1
1070
    44
1040
1.0
1070
    74
1070
     0
1000
MTEXTEND
  0
POINT
  5
8FC3
330
8FB9
100
AcDbEntity
  8
DEFPOINTS
 62
     0
 48
5.0
100
AcDbPoint
 10
170044.7975601418
 20
-65637.51038444224
 30
0.0
  0
POINT
  5
8FC4
330
8FB9
100
AcDbEntity
  8
DEFPOINTS
 62
     0
 48
5.0
100
AcDbPoint
 10
170043.3676717006
 20
-65646.51085720758
 30
0.0
  0
POINT
  5
8FC5
330
8FB9
100
AcDbEntity
  8
DEFPOINTS
 62
     0
 48
5.0
100
AcDbPoint
 10
170045.8220456506
 20
-65646.51085720758
 30
0.0
  0
ENDBLK
  5
8FC6
330
8FB9
100
AcDbEntity
  8
0
 48
5.0
100
AcDbBlockEnd
  0
BLOCK
  5
8FC8
330
8FC7
100
AcDbEntity
  8
0
 48
5.0
100
AcDbBlockBegin
  2
*D43
 70
     1
 10
0.0
 20
0.0
 30
0.0
  3
*D43
  1

  0
LINE
  5
8FC9
330
8FC7
100
AcDbEntity
  8
标注
 62
     0
 48
5.0
370
    -2
100
AcDbLine
 10
170053.2837945036
 20
-65656.9340782076
 30
0.0
 11
170049.6087772828
 21
-65656.9340782076
 31
0.0
  0
LINE
  5
8FCA
330
8FC7
100
AcDbEntity
  8
标注
 62
     0
 48
5.0
370
    -2
100
AcDbLine
 10
170053.3389125036
 20
-65678.9340342076
 30
0.0
 11
170049.6087772828
 21
-65678.9340342076
 31
0.0
  0
LINE
  5
8FCB
330
8FC7
100
AcDbEntity
  8
标注
 62
     0
 48
5.0
370
    -2
100
AcDbLine
 10
170047.6087772828
 20
-65644.9340782076
 30
0.0
 11
170047.6087772828
 21
-65632.9340782076
 31
0.0
  0
LINE
  5
8FCC
330
8FC7
100
AcDbEntity
  8
标注
 62
     0
 48
5.0
370
    -2
100
AcDbLine
 10
170047.6087772828
 20
-65690.9340342076
 30
0.0
 11
170047.6087772828
 21
-65702.9340342076
 31
0.0
  0
LINE
  5
8FCD
330
8FC7
100
AcDbEntity
  8
标注
 62
     0
 48
5.0
370
    -2
100
AcDbLine
 10
170047.6087772828
 20
-65656.9340782076
 30
0.0
 11
170047.6087772828
 21
-65678.9340342076
 31
0.0
  0
SOLID
  5
8FCE
330
8FC7
100
AcDbEntity
  8
标注
 62
     0
 48
5.0
100
AcDbTrace
 10
170045.6087772828
 20
-65644.9340782076
 30
0.0
 11
170049.6087772828
 21
-65644.9340782076
 31
0.0
 12
170047.6087772828
 22
-65656.9340782076
 32
0.0
 13
170047.6087772828
 23
-65656.9340782076
 33
0.0
  0
SOLID
  5
8FCF
330
8FC7
100
AcDbEntity
  8
标注
 62
     0
 48
5.0
100
AcDbTrace
 10
170045.6087772828
 20
-65690.9340342076
 30
0.0
 11
170049.6087772828
 21
-65690.9340342076
 31
0.0
 12
170047.6087772828
 22
-65678.9340342076
 32
0.0
 13
170047.6087772828
 23
-65678.9340342076
 33
0.0
  0
MTEXT
  5
8FD0
330
8FC7
100
AcDbEntity
  8
标注
 62
     0
 48
5.0
100
AcDbMText
 10
170047.6087772828
 20
-65715.50070087424
 30
0.0
 40
12.0
 41
0.0
 71
     5
 72
     1
  1
22
 11
0.0000000000000001
 21
1.0
 31
0.0
 73
     1
 44
1.0
1001
ACAD
1000
MTEXTBEGIN
1070
    73
1070
     1
1070
    44
1040
1.0
1070
    74
1070
     0
1000
MTEXTEND
  0
POINT
  5
8FD1
330
8FC7
100
AcDbEntity
  8
DEFPOINTS
 62
     0
 48
5.0
100
AcDbPoint
 10
170044.2837945036
 20
-65656.9340782076
 30
0.0
  0
POINT
  5
8FD2
330
8FC7
100
AcDbEntity
  8
DEFPOINTS
 62
     0
 48
5.0
100
AcDbPoint
 10
170044.3389125036
 20
-65678.9340342076
 30
0.0
  0
POINT
  5
8FD3
330
8FC7
100
AcDbEntity
  8
DEFPOINTS
 62
     0
 48
5.0
100
AcDbPoint
 10
170047.6087772828
 20
-65678.9340342076
 30
0.0
  0
ENDBLK
  5
8FD4
330
8FC7
100
AcDbEntity
  8
0
 48
5.0
100
AcDbBlockEnd
  0
BLOCK
  5
8FD6
330
8FD5
100
AcDbEntity
  8
0
 48
5.0
100
AcDbBlockBegin
  2
*D44
 70
     1
 10
0.0
 20
0.0
 30
0.0
  3
*D44
  1

  0
LINE
  5
8FD7
330
8FD5
100
AcDbEntity
  8
标注
 62
     0
 48
5.0
370
    -2
100
AcDbLine
 10
170020.0318745036
 20
-65687.73718420761
 30
0.0
 11
170020.0318745036
 21
-65684.36198656391
 31
0.0
  0
LINE
  5
8FD8
330
8FD5
100
AcDbEntity
  8
标注
 62
     0
 48
5.0
370
    -2
100
AcDbLine
 10
170044.5357625036
 20
-65687.73718420761
 30
0.0
 11
170044.5357625036
 21
-65684.36198656391
 31
0.0
  0
LINE
  5
8FD9
330
8FD5
100
AcDbEntity
  8
标注
 62
     0
 48
5.0
370
    -2
100
AcDbLine
 10
170008.0318745036
 20
-65682.36198656392
 30
0.0
 11
169996.0318745036
 21
-65682.36198656392
 31
0.0
  0
LINE
  5
8FDA
330
8FD5
100
AcDbEntity
  8
标注
 62
     0
 48
5.0
370
    -2
100
AcDbLine
 10
170056.5357625036
 20
-65682.36198656392
 30
0.0
 11
170068.5357625036
 21
-65682.36198656392
 31
0.0
  0
LINE
  5
8FDB
330
8FD5
100
AcDbEntity
  8
标注
 62
     0
 48
5.0
370
    -2
100
AcDbLine
 10
170020.0318745036
 20
-65682.36198656392
 30
0.0
 11
170044.5357625036
 21
-65682.36198656392
 31
0.0
  0
SOLID
  5
8FDC
330
8FD5
100
AcDbEntity
  8
标注
 62
     0
 48
5.0
100
AcDbTrace
 10
170008.0318745036
 20
-65680.36198656391
 30
0.0
 11
170008.0318745036
 21
-65684.36198656391
 31
0.0
 12
170020.0318745036
 22
-65682.36198656392
 32
0.0
 13
170020.0318745036
 23
-65682.36198656392
 33
0.0
  0
SOLID
  5
8FDD
330
8FD5
100
AcDbEntity
  8
标注
 62
     0
 48
5.0
100
AcDbTrace
 10
170056.5357625036
 20
-65680.36198656391
 30
0.0
 11
170056.5357625036
 21
-65684.36198656391
 31
0.0
 12
170044.5357625036
 22
-65682.36198656392
 32
0.0
 13
170044.5357625036
 23
-65682.36198656392
 33
0.0
  0
MTEXT
  5
8FDE
330
8FD5
100
AcDbEntity
  8
标注
 62
     0
 48
5.0
100
AcDbMText
 10
170032.2838185036
 20
-65682.36198656392
 30
0.0
 40
12.0
 41
0.0
 71
     5
 72
     1
  1
24,5
 73
     1
 44
1.0
1001
ACAD
1000
MTEXTBEGIN
1070
    73
1070
     1
1070
    44
1040
1.0
1070
    74
1070
     0
1000
MTEXTEND
  0
POINT
  5
8FDF
330
8FD5
100
AcDbEntity
  8
DEFPOINTS
 62
     0
 48
5.0
100
AcDbPoint
 10
170020.0318745036
 20
-65678.73718420761
 30
0.0
  0
POINT
  5
8FE0
330
8FD5
100
AcDbEntity
  8
DEFPOINTS
 62
     0
 48
5.0
100
AcDbPoint
 10
170044.5357625036
 20
-65678.73718420761
 30
0.0
  0
POINT
  5
8FE1
330
8FD5
100
AcDbEntity
  8
DEFPOINTS
 62
     0
 48
5.0
100
AcDbPoint
 10
170044.5357625036
 20
-65682.36198656392
 30
0.0
  0
ENDBLK
  5
8FE2
330
8FD5
100
AcDbEntity
  8
0
 48
5.0
100
AcDbBlockEnd
  0
BLOCK
  5
8FE4
330
8FE3
100
AcDbEntity
  8
0
 48
5.0
100
AcDbBlockBegin
  2
*D45
 70
     1
 10
0.0
 20
0.0
 30
0.0
  3
*D45
  1

  0
LINE
  5
8FE5
330
8FE3
100
AcDbEntity
  8
标注
 62
     0
 48
5.0
370
    -2
100
AcDbLine
 10
170021.4098245036
 20
-65686.68206820761
 30
0.0
 11
170021.4098245036
 21
-65682.85504700355
 31
0.0
  0
LINE
  5
8FE6
330
8FE3
100
AcDbEntity
  8
标注
 62
     0
 48
5.0
370
    -2
100
AcDbLine
 10
170043.1578125036
 20
-65686.68206820761
 30
0.0
 11
170043.1578125036
 21
-65682.85504700355
 31
0.0
  0
LINE
  5
8FE7
330
8FE3
100
AcDbEntity
  8
标注
 62
     0
 48
5.0
370
    -2
100
AcDbLine
 10
170009.4098245036
 20
-65680.85504700356
 30
0.0
 11
169997.4098245036
 21
-65680.85504700356
 31
0.0
  0
LINE
  5
8FE8
330
8FE3
100
AcDbEntity
  8
标注
 62
     0
 48
5.0
370
    -2
100
AcDbLine
 10
170055.1578125036
 20
-65680.85504700356
 30
0.0
 11
170067.1578125035
 21
-65680.85504700356
 31
0.0
  0
LINE
  5
8FE9
330
8FE3
100
AcDbEntity
  8
标注
 62
     0
 48
5.0
370
    -2
100
AcDbLine
 10
170021.4098245036
 20
-65680.85504700356
 30
0.0
 11
170043.1578125036
 21
-65680.85504700356
 31
0.0
  0
SOLID
  5
8FEA
330
8FE3
100
AcDbEntity
  8
标注
 62
     0
 48
5.0
100
AcDbTrace
 10
170009.4098245036
 20
-65678.85504700355
 30
0.0
 11
170009.4098245036
 21
-65682.85504700355
 31
0.0
 12
170021.4098245036
 22
-65680.85504700356
 32
0.0
 13
170021.4098245036
 23
-65680.85504700356
 33
0.0
  0
SOLID
  5
8FEB
330
8FE3
100
AcDbEntity
  8
标注
 62
     0
 48
5.0
100
AcDbTrace
 10
170055.1578125036
 20
-65678.85504700355
 30
0.0
 11
170055.1578125036
 21
-65682.85504700355
 31
0.0
 12
170043.1578125036
 22
-65680.85504700356
 32
0.0
 13
170043.1578125036
 23
-65680.85504700356
 33
0.0
  0
MTEXT
  5
8FEC
330
8FE3
100
AcDbEntity
  8
标注
 62
     0
 48
5.0
100
AcDbMText
 10
170032.2838185036
 20
-65680.85504700356
 30
0.0
 40
12.0
 41
0.0
 71
     5
 72
     1
  1
21,7
 73
     1
 44
1.0
1001
ACAD
1000
MTEXTBEGIN
1070
    73
1070
     1
1070
    44
1040
1.0
1070
    74
1070
     0
1000
MTEXTEND
  0
POINT
  5
8FED
330
8FE3
100
AcDbEntity
  8
DEFPOINTS
 62
     0
 48
5.0
100
AcDbPoint
 10
170021.4098245036
 20
-65677.6820682076
 30
0.0
  0
POINT
  5
8FEE
330
8FE3
100
AcDbEntity
  8
DEFPOINTS
 62
     0
 48
5.0
100
AcDbPoint
 10
170043.1578125036
 20
-65677.6820682076
 30
0.0
  0
POINT
  5
8FEF
330
8FE3
100
AcDbEntity
  8
DEFPOINTS
 62
     0
 48
5.0
100
AcDbPoint
 10
170043.1578125036
 20
-65680.85504700356
 30
0.0
  0
ENDBLK
  5
8FF0
330
8FE3
100
AcDbEntity
  8
0
 48
5.0
100
AcDbBlockEnd
  0
BLOCK
  5
8FF2
330
8FF1
100
AcDbEntity
  8
0
 48
5.0
100
AcDbBlockBegin
  2
*D46
 70
     1
 10
0.0
 20
0.0
 30
0.0
  3
*D46
  1

  0
LINE
  5
8FF3
330
8FF1
100
AcDbEntity
  8
标注
 62
     0
 48
5.0
370
    -2
100
AcDbLine
 10
170052.1578125036
 20
-65660.6821022076
 30
0.0
 11
170048.2743783604
 21
-65660.6821022076
 31
0.0
  0
LINE
  5
8FF4
330
8FF1
100
AcDbEntity
  8
标注
 62
     0
 48
5.0
370
    -2
100
AcDbLine
 10
170052.1578125036
 20
-65677.6820682076
 30
0.0
 11
170048.2743783604
 21
-65677.6820682076
 31
0.0
  0
LINE
  5
8FF5
330
8FF1
100
AcDbEntity
  8
标注
 62
     0
 48
5.0
370
    -2
100
AcDbLine
 10
170046.2743783604
 20
-65648.6821022076
 30
0.0
 11
170046.2743783604
 21
-65636.6821022076
 31
0.0
  0
LINE
  5
8FF6
330
8FF1
100
AcDbEntity
  8
标注
 62
     0
 48
5.0
370
    -2
100
AcDbLine
 10
170046.2743783604
 20
-65689.68206820761
 30
0.0
 11
170046.2743783604
 21
-65701.68206820761
 31
0.0
  0
LINE
  5
8FF7
330
8FF1
100
AcDbEntity
  8
标注
 62
     0
 48
5.0
370
    -2
100
AcDbLine
 10
170046.2743783604
 20
-65660.6821022076
 30
0.0
 11
170046.2743783604
 21
-65677.6820682076
 31
0.0
  0
SOLID
  5
8FF8
330
8FF1
100
AcDbEntity
  8
标注
 62
     0
 48
5.0
100
AcDbTrace
 10
170044.2743783603
 20
-65648.6821022076
 30
0.0
 11
170048.2743783604
 21
-65648.6821022076
 31
0.0
 12
170046.2743783604
 22
-65660.6821022076
 32
0.0
 13
170046.2743783604
 23
-65660.6821022076
 33
0.0
  0
SOLID
  5
8FF9
330
8FF1
100
AcDbEntity
  8
标注
 62
     0
 48
5.0
100
AcDbTrace
 10
170044.2743783603
 20
-65689.68206820761
 30
0.0
 11
170048.2743783604
 21
-65689.68206820761
 31
0.0
 12
170046.2743783604
 22
-65677.6820682076
 32
0.0
 13
170046.2743783604
 23
-65677.6820682076
 33
0.0
  0
MTEXT
  5
8FFA
330
8FF1
100
AcDbEntity
  8
标注
 62
     0
 48
5.0
100
AcDbMText
 10
170046.2743783604
 20
-65669.18208520758
 30
0.0
 40
12.0
 41
0.0
 71
     5
 72
     1
  1
17
 11
0.0000000000000001
 21
1.0
 31
0.0
 73
     1
 44
1.0
1001
ACAD
1000
MTEXTBEGIN
1070
    73
1070
     1
1070
    44
1040
1.0
1070
    74
1070
     0
1000
MTEXTEND
  0
POINT
  5
8FFB
330
8FF1
100
AcDbEntity
  8
DEFPOINTS
 62
     0
 48
5.0
100
AcDbPoint
 10
170043.1578125036
 20
-65660.6821022076
 30
0.0
  0
POINT
  5
8FFC
330
8FF1
100
AcDbEntity
  8
DEFPOINTS
 62
     0
 48
5.0
100
AcDbPoint
 10
170043.1578125036
 20
-65677.6820682076
 30
0.0
  0
POINT
  5
8FFD
330
8FF1
100
AcDbEntity
  8
DEFPOINTS
 62
     0
 48
5.0
100
AcDbPoint
 10
170046.2743783604
 20
-65677.6820682076
 30
0.0
  0
ENDBLK
  5
8FFE
330
8FF1
100
AcDbEntity
  8
0
 48
5.0
100
AcDbBlockEnd
  0
BLOCK
  5
9000
330
8FFF
100
AcDbEntity
  8
0
 48
5.0
100
AcDbBlockBegin
  2
*D47
 70
     1
 10
0.0
 20
0.0
 30
0.0
  3
*D47
  1

  0
LINE
  5
9001
330
8FFF
100
AcDbEntity
  8
标注
 62
     0
 48
5.0
370
    -2
100
AcDbLine
 10
170044.1420625036
 20
-65720.62926615659
 30
0.0
 11
170044.1420625036
 21
-65714.62535908653
 31
0.0
  0
LINE
  5
9002
330
8FFF
100
AcDbEntity
  8
标注
 62
     0
 48
5.0
370
    -2
100
AcDbLine
 10
170020.4255745036
 20
-65720.62926615659
 30
0.0
 11
170020.4255745036
 21
-65714.62535908653
 31
0.0
  0
LINE
  5
9003
330
8FFF
100
AcDbEntity
  8
标注
 62
     0
 48
5.0
370
    -2
100
AcDbLine
 10
170058.1420625036
 20
-65712.62535908654
 30
0.0
 11
170072.1420625036
 21
-65712.62535908654
 31
0.0
  0
LINE
  5
9004
330
8FFF
100
AcDbEntity
  8
标注
 62
     0
 48
5.0
370
    -2
100
AcDbLine
 10
170006.4255745036
 20
-65712.62535908654
 30
0.0
 11
169992.4255745036
 21
-65712.62535908654
 31
0.0
  0
LINE
  5
9005
330
8FFF
100
AcDbEntity
  8
标注
 62
     0
 48
5.0
370
    -2
100
AcDbLine
 10
170044.1420625036
 20
-65712.62535908654
 30
0.0
 11
170020.4255745036
 21
-65712.62535908654
 31
0.0
  0
SOLID
  5
9006
330
8FFF
100
AcDbEntity
  8
标注
 62
     0
 48
5.0
100
AcDbTrace
 10
170058.1420625036
 20
-65710.29202575321
 30
0.0
 11
170058.1420625036
 21
-65714.95869241987
 31
0.0
 12
170044.1420625036
 22
-65712.62535908654
 32
0.0
 13
170044.1420625036
 23
-65712.62535908654
 33
0.0
  0
SOLID
  5
9007
330
8FFF
100
AcDbEntity
  8
标注
 62
     0
 48
5.0
100
AcDbTrace
 10
170006.4255745036
 20
-65710.29202575321
 30
0.0
 11
170006.4255745036
 21
-65714.95869241987
 31
0.0
 12
170020.4255745036
 22
-65712.62535908654
 32
0.0
 13
170020.4255745036
 23
-65712.62535908654
 33
0.0
  0
MTEXT
  5
9008
330
8FFF
100
AcDbEntity
  8
标注
 62
     0
 48
5.0
100
AcDbMText
 10
169968.6033522813
 20
-65712.62535908654
 30
0.0
 40
14.0
 41
0.0
 71
     5
 72
     1
  1
23,7
 73
     1
 44
1.0
1001
ACAD
1000
MTEXTBEGIN
1070
    73
1070
     1
1070
    44
1040
1.0
1070
    74
1070
     0
1000
MTEXTEND
  0
POINT
  5
9009
330
8FFF
100
AcDbEntity
  8
DEFPOINTS
 62
     0
 48
5.0
100
AcDbPoint
 10
170044.1420625036
 20
-65710.6292661566
 30
0.0
  0
POINT
  5
900A
330
8FFF
100
AcDbEntity
  8
DEFPOINTS
 62
     0
 48
5.0
100
AcDbPoint
 10
170020.4255745036
 20
-65710.6292661566
 30
0.0
  0
POINT
  5
900B
330
8FFF
100
AcDbEntity
  8
DEFPOINTS
 62
     0
 48
5.0
100
AcDbPoint
 10
170020.4255745036
 20
-65712.62535908654
 30
0.0
  0
ENDBLK
  5
900C
330
8FFF
100
AcDbEntity
  8
0
 48
5.0
100
AcDbBlockEnd
  0
BLOCK
  5
900E
330
900D
100
AcDbEntity
  8
0
 48
5.0
100
AcDbBlockBegin
  2
*D48
 70
     1
 10
0.0
 20
0.0
 30
0.0
  3
*D48
  1

  0
LINE
  5
900F
330
900D
100
AcDbEntity
  8
标注
 62
     0
 48
5.0
370
    -2
100
AcDbLine
 10
170054.1420625036
 20
-65689.4167101566
 30
0.0
 11
170048.4140509826
 21
-65689.4167101566
 31
0.0
  0
LINE
  5
9010
330
900D
100
AcDbEntity
  8
标注
 62
     0
 48
5.0
370
    -2
100
AcDbLine
 10
170054.1420625036
 20
-65710.6292661566
 30
0.0
 11
170048.4140509826
 21
-65710.6292661566
 31
0.0
  0
LINE
  5
9011
330
900D
100
AcDbEntity
  8
标注
 62
     0
 48
5.0
370
    -2
100
AcDbLine
 10
170046.4140509826
 20
-65675.4167101566
 30
0.0
 11
170046.4140509826
 21
-65661.41671015659
 31
0.0
  0
LINE
  5
9012
330
900D
100
AcDbEntity
  8
标注
 62
     0
 48
5.0
370
    -2
100
AcDbLine
 10
170046.4140509826
 20
-65724.62926615659
 30
0.0
 11
170046.4140509826
 21
-65738.62926615659
 31
0.0
  0
LINE
  5
9013
330
900D
100
AcDbEntity
  8
标注
 62
     0
 48
5.0
370
    -2
100
AcDbLine
 10
170046.4140509826
 20
-65689.4167101566
 30
0.0
 11
170046.4140509826
 21
-65710.6292661566
 31
0.0
  0
SOLID
  5
9014
330
900D
100
AcDbEntity
  8
标注
 62
     0
 48
5.0
100
AcDbTrace
 10
170044.0807176492
 20
-65675.4167101566
 30
0.0
 11
170048.7473843159
 21
-65675.4167101566
 31
0.0
 12
170046.4140509826
 22
-65689.4167101566
 32
0.0
 13
170046.4140509826
 23
-65689.4167101566
 33
0.0
  0
SOLID
  5
9015
330
900D
100
AcDbEntity
  8
标注
 62
     0
 48
5.0
100
AcDbTrace
 10
170044.0807176492
 20
-65724.62926615659
 30
0.0
 11
170048.7473843159
 21
-65724.62926615659
 31
0.0
 12
170046.4140509826
 22
-65710.6292661566
 32
0.0
 13
170046.4140509826
 23
-65710.6292661566
 33
0.0
  0
MTEXT
  5
9016
330
900D
100
AcDbEntity
  8
标注
 62
     0
 48
5.0
100
AcDbMText
 10
170046.4140509826
 20
-65762.4125994899
 30
0.0
 40
14.0
 41
0.0
 71
     5
 72
     1
  1
21,2
 11
0.0000000000000001
 21
1.0
 31
0.0
 73
     1
 44
1.0
1001
ACAD
1000
MTEXTBEGIN
1070
    73
1070
     1
1070
    44
1040
1.0
1070
    74
1070
     0
1000
MTEXTEND
  0
POINT
  5
9017
330
900D
100
AcDbEntity
  8
DEFPOINTS
 62
     0
 48
5.0
100
AcDbPoint
 10
170044.1420625036
 20
-65689.4167101566
 30
0.0
  0
POINT
  5
9018
330
900D
100
AcDbEntity
  8
DEFPOINTS
 62
     0
 48
5.0
100
AcDbPoint
 10
170044.1420625036
 20
-65710.6292661566
 30
0.0
  0
POINT
  5
9019
330
900D
100
AcDbEntity
  8
DEFPOINTS
 62
     0
 48
5.0
100
AcDbPoint
 10
170046.4140509826
 20
-65710.6292661566
 30
0.0
  0
ENDBLK
  5
901A
330
900D
100
AcDbEntity
  8
0
 48
5.0
100
AcDbBlockEnd
  0
BLOCK
  5
9110
330
910F
100
AcDbEntity
  8
0
100
AcDbBlockBegin
  2
*D50
 70
     1
 10
0.0
 20
0.0
 30
0.0
  3
*D50
  1

  0
LINE
  5
91CE
330
910F
100
AcDbEntity
  8
标注线
 48
5.0
370
    -2
100
AcDbLine
 10
1531.519368534846
 20
167.5671702252697
 30
0.0
 11
1531.983854043757
 21
167.5671702252697
 31
0.0
  0
LINE
  5
91CF
330
910F
100
AcDbEntity
  8
标注线
 48
5.0
370
    -2
100
AcDbLine
 10
1530.089480093706
 20
158.5666974599265
 30
0.0
 11
1531.983854043757
 21
158.5666974599265
 31
0.0
  0
LINE
  5
91D0
330
910F
100
AcDbEntity
  8
标注线
 48
5.0
370
    -2
100
AcDbLine
 10
1531.663854043757
 20
166.9171702252697
 30
0.0
 11
1531.663854043757
 21
163.7404843200879
 31
0.0
  0
LINE
  5
91D1
330
910F
100
AcDbEntity
  8
标注线
 48
5.0
370
    -2
100
AcDbLine
 10
1531.663854043757
 20
159.2166974599265
 30
0.0
 11
1531.663854043757
 21
162.3933833651084
 31
0.0
  0
MTEXT
  5
91D2
330
910F
100
AcDbEntity
  8
标注线
 48
5.0
100
AcDbMText
 10
1531.663854043757
 20
163.0669338425984
 30
0.0
 40
0.65
 41
0.0
 71
     5
 72
     1
  1
\A1;9"
 11
0.0000000000000001
 21
1.0
 31
0.0
 73
     1
 44
1.0
1001
ACAD
1000
MTEXTBEGIN
1070
    73
1070
     1
1070
    44
1040
1.0
1070
    74
1070
     0
1000
MTEXTEND
  0
SOLID
  5
91D3
330
910F
100
AcDbEntity
  8
标注线
 48
5.0
100
AcDbTrace
 10
1531.555520710424
 20
166.9171702252697
 30
0.0
 11
1531.77218737709
 21
166.9171702252697
 31
0.0
 12
1531.663854043757
 22
167.5671702252697
 32
0.0
 13
1531.663854043757
 23
167.5671702252697
 33
0.0
  0
SOLID
  5
91D4
330
910F
100
AcDbEntity
  8
标注线
 48
5.0
100
AcDbTrace
 10
1531.555520710424
 20
159.2166974599265
 30
0.0
 11
1531.77218737709
 21
159.2166974599265
 31
0.0
 12
1531.663854043757
 22
158.5666974599265
 32
0.0
 13
1531.663854043757
 23
158.5666974599265
 33
0.0
  0
POINT
  5
91D5
330
910F
100
AcDbEntity
  8
DEFPOINTS
 62
     0
 48
5.0
100
AcDbPoint
 10
1530.639368534846
 20
167.5671702252697
 30
0.0
  0
POINT
  5
91D6
330
910F
100
AcDbEntity
  8
DEFPOINTS
 62
     0
 48
5.0
100
AcDbPoint
 10
1529.209480093706
 20
158.5666974599265
 30
0.0
  0
POINT
  5
91D7
330
910F
100
AcDbEntity
  8
DEFPOINTS
 62
     0
 48
5.0
100
AcDbPoint
 10
1531.663854043757
 20
158.5666974599265
 30
0.0
  0
ENDBLK
  5
9111
330
910F
100
AcDbEntity
  8
0
100
AcDbBlockEnd
  0
BLOCK
  5
911E
330
911D
100
AcDbEntity
  8
0
100
AcDbBlockBegin
  2
*D51
 70
     1
 10
0.0
 20
0.0
 30
0.0
  3
*D51
  1

  0
LINE
  5
91E5
330
911D
100
AcDbEntity
  8
标注线
 48
5.0
370
    -2
100
AcDbLine
 10
1531.005602896675
 20
148.1434764599074
 30
0.0
 11
1534.090585675892
 21
148.1434764599074
 31
0.0
  0
LINE
  5
91E6
330
911D
100
AcDbEntity
  8
标注线
 48
5.0
370
    -2
100
AcDbLine
 10
1531.060720896665
 20
126.1435204599078
 30
0.0
 11
1534.090585675892
 21
126.1435204599078
 31
0.0
  0
LINE
  5
91E7
330
911D
100
AcDbEntity
  8
标注线
 48
5.0
370
    -2
100
AcDbLine
 10
1533.770585675892
 20
147.4934764599074
 30
0.0
 11
1533.770585675892
 21
138.0750980506307
 31
0.0
  0
LINE
  5
91E8
330
911D
100
AcDbEntity
  8
标注线
 48
5.0
370
    -2
100
AcDbLine
 10
1533.770585675892
 20
126.7935204599078
 30
0.0
 11
1533.770585675892
 21
136.2118988691845
 31
0.0
  0
SOLID
  5
91E9
330
911D
100
AcDbEntity
  8
标注线
 48
5.0
100
AcDbTrace
 10
1533.662252342559
 20
147.4934764599074
 30
0.0
 11
1533.878919009225
 21
147.4934764599074
 31
0.0
 12
1533.770585675892
 22
148.1434764599074
 32
0.0
 13
1533.770585675892
 23
148.1434764599074
 33
0.0
  0
SOLID
  5
91EA
330
911D
100
AcDbEntity
  8
标注线
 48
5.0
100
AcDbTrace
 10
1533.662252342559
 20
126.7935204599078
 30
0.0
 11
1533.878919009225
 21
126.7935204599078
 31
0.0
 12
1533.770585675892
 22
126.1435204599078
 32
0.0
 13
1533.770585675892
 23
126.1435204599078
 33
0.0
  0
MTEXT
  5
91EB
330
911D
100
AcDbEntity
  8
标注线
 48
5.0
100
AcDbMText
 10
1533.770585675892
 20
137.1434984599078
 30
0.0
 40
0.65
 41
0.0
 71
     5
 72
     1
  1
\A1;22"
 11
0.0000000000000001
 21
1.0
 31
0.0
 73
     1
 44
1.0
1001
ACAD
1000
MTEXTBEGIN
1070
    73
1070
     1
1070
    44
1040
1.0
1070
    74
1070
     0
1000
MTEXTEND
  0
POINT
  5
91EC
330
911D
100
AcDbEntity
  8
DEFPOINTS
 62
     0
 48
5.0
100
AcDbPoint
 10
1530.125602896675
 20
148.1434764599074
 30
0.0
  0
POINT
  5
91ED
330
911D
100
AcDbEntity
  8
DEFPOINTS
 62
     0
 48
5.0
100
AcDbPoint
 10
1530.180720896665
 20
126.1435204599078
 30
0.0
  0
POINT
  5
91EE
330
911D
100
AcDbEntity
  8
DEFPOINTS
 62
     0
 48
5.0
100
AcDbPoint
 10
1533.770585675892
 20
126.1435204599078
 30
0.0
  0
ENDBLK
  5
911F
330
911D
100
AcDbEntity
  8
0
100
AcDbBlockEnd
  0
BLOCK
  5
912C
330
912B
100
AcDbEntity
  8
0
100
AcDbBlockBegin
  2
*D52
 70
     1
 10
0.0
 20
0.0
 30
0.0
  3
*D52
  1

  0
LINE
  5
91EF
330
912B
100
AcDbEntity
  8
标注线
 48
5.0
370
    -2
100
AcDbLine
 10
1505.873682896666
 20
125.4603704599008
 30
0.0
 11
1505.873682896666
 21
122.0755681035914
 31
0.0
  0
LINE
  5
91F0
330
912B
100
AcDbEntity
  8
标注线
 48
5.0
370
    -2
100
AcDbLine
 10
1530.377570896672
 20
125.4603704599008
 30
0.0
 11
1530.377570896672
 21
122.0755681035914
 31
0.0
  0
LINE
  5
91F1
330
912B
100
AcDbEntity
  8
标注线
 48
5.0
370
    -2
100
AcDbLine
 10
1506.523682896666
 20
122.3955681035914
 30
0.0
 11
1516.436728533777
 21
122.3955681035914
 31
0.0
  0
LINE
  5
91F2
330
912B
100
AcDbEntity
  8
标注线
 48
5.0
370
    -2
100
AcDbLine
 10
1529.727570896672
 20
122.3955681035914
 30
0.0
 11
1519.814525259561
 21
122.3955681035914
 31
0.0
  0
MTEXT
  5
91F3
330
912B
100
AcDbEntity
  8
标注线
 48
5.0
100
AcDbMText
 10
1518.125626896669
 20
122.3955681035914
 30
0.0
 40
0.65
 41
0.0
 71
     5
 72
     1
  1
\A1;24 1/2"
 73
     1
 44
1.0
1001
ACAD
1000
MTEXTBEGIN
1070
    73
1070
     1
1070
    44
1040
1.0
1070
    74
1070
     0
1000
MTEXTEND
  0
SOLID
  5
91F4
330
912B
100
AcDbEntity
  8
标注线
 48
5.0
100
AcDbTrace
 10
1506.523682896666
 20
122.5039014369247
 30
0.0
 11
1506.523682896666
 21
122.2872347702581
 31
0.0
 12
1505.873682896666
 22
122.3955681035914
 32
0.0
 13
1505.873682896666
 23
122.3955681035914
 33
0.0
  0
SOLID
  5
91F5
330
912B
100
AcDbEntity
  8
标注线
 48
5.0
100
AcDbTrace
 10
1529.727570896672
 20
122.5039014369247
 30
0.0
 11
1529.727570896672
 21
122.2872347702581
 31
0.0
 12
1530.377570896672
 22
122.3955681035914
 32
0.0
 13
1530.377570896672
 23
122.3955681035914
 33
0.0
  0
POINT
  5
91F6
330
912B
100
AcDbEntity
  8
DEFPOINTS
 62
     0
 48
5.0
100
AcDbPoint
 10
1505.873682896666
 20
126.3403704599008
 30
0.0
  0
POINT
  5
91F7
330
912B
100
AcDbEntity
  8
DEFPOINTS
 62
     0
 48
5.0
100
AcDbPoint
 10
1530.377570896672
 20
126.3403704599008
 30
0.0
  0
POINT
  5
91F8
330
912B
100
AcDbEntity
  8
DEFPOINTS
 62
     0
 48
5.0
100
AcDbPoint
 10
1530.377570896672
 20
122.3955681035914
 30
0.0
  0
ENDBLK
  5
912D
330
912B
100
AcDbEntity
  8
0
100
AcDbBlockEnd
  0
BLOCK
  5
9145
330
9144
100
AcDbEntity
  8
0
100
AcDbBlockBegin
  2
*D53
 70
     1
 10
0.0
 20
0.0
 30
0.0
  3
*D53
  1

  0
LINE
  5
91BA
330
9144
100
AcDbEntity
  8
标注线
 48
5.0
370
    -2
100
AcDbLine
 10
1507.25163289666
 20
126.515486459904
 30
0.0
 11
1507.25163289666
 21
123.9025076639555
 31
0.0
  0
LINE
  5
91BB
330
9144
100
AcDbEntity
  8
标注线
 48
5.0
370
    -2
100
AcDbLine
 10
1528.999620896648
 20
126.515486459904
 30
0.0
 11
1528.999620896648
 21
123.9025076639555
 31
0.0
  0
LINE
  5
91BC
330
9144
100
AcDbEntity
  8
标注线
 48
5.0
370
    -2
100
AcDbLine
 10
1507.90163289666
 20
124.2225076639555
 30
0.0
 11
1516.436728533762
 21
124.2225076639555
 31
0.0
  0
LINE
  5
91BD
330
9144
100
AcDbEntity
  8
标注线
 48
5.0
370
    -2
100
AcDbLine
 10
1528.349620896648
 20
124.2225076639555
 30
0.0
 11
1519.814525259547
 21
124.2225076639555
 31
0.0
  0
MTEXT
  5
91BE
330
9144
100
AcDbEntity
  8
标注线
 48
5.0
100
AcDbMText
 10
1518.125626896654
 20
124.2225076639555
 30
0.0
 40
0.65
 41
0.0
 71
     5
 72
     1
  1
\A1;21 3/4"
 73
     1
 44
1.0
1001
ACAD
1000
MTEXTBEGIN
1070
    73
1070
     1
1070
    44
1040
1.0
1070
    74
1070
     0
1000
MTEXTEND
  0
SOLID
  5
91BF
330
9144
100
AcDbEntity
  8
标注线
 48
5.0
100
AcDbTrace
 10
1507.90163289666
 20
124.3308409972888
 30
0.0
 11
1507.90163289666
 21
124.1141743306222
 31
0.0
 12
1507.25163289666
 22
124.2225076639555
 32
0.0
 13
1507.25163289666
 23
124.2225076639555
 33
0.0
  0
SOLID
  5
91C0
330
9144
100
AcDbEntity
  8
标注线
 48
5.0
100
AcDbTrace
 10
1528.349620896648
 20
124.3308409972888
 30
0.0
 11
1528.349620896648
 21
124.1141743306222
 31
0.0
 12
1528.999620896648
 22
124.2225076639555
 32
0.0
 13
1528.999620896648
 23
124.2225076639555
 33
0.0
  0
POINT
  5
91C1
330
9144
100
AcDbEntity
  8
DEFPOINTS
 62
     0
 48
5.0
100
AcDbPoint
 10
1507.25163289666
 20
127.3954864599039
 30
0.0
  0
POINT
  5
91C2
330
9144
100
AcDbEntity
  8
DEFPOINTS
 62
     0
 48
5.0
100
AcDbPoint
 10
1528.999620896648
 20
127.3954864599039
 30
0.0
  0
POINT
  5
91C3
330
9144
100
AcDbEntity
  8
DEFPOINTS
 62
     0
 48
5.0
100
AcDbPoint
 10
1528.999620896648
 20
124.2225076639555
 30
0.0
  0
ENDBLK
  5
9146
330
9144
100
AcDbEntity
  8
0
100
AcDbBlockEnd
  0
BLOCK
  5
9153
330
9152
100
AcDbEntity
  8
0
100
AcDbBlockBegin
  2
*D54
 70
     1
 10
0.0
 20
0.0
 30
0.0
  3
*D54
  1

  0
LINE
  5
91B0
330
9152
100
AcDbEntity
  8
标注线
 48
5.0
370
    -2
100
AcDbLine
 10
1529.879620896678
 20
144.395452459907
 30
0.0
 11
1532.43618675344
 21
144.395452459907
 31
0.0
  0
LINE
  5
91B1
330
9152
100
AcDbEntity
  8
标注线
 48
5.0
370
    -2
100
AcDbLine
 10
1529.879620896649
 20
127.3954864599039
 30
0.0
 11
1532.43618675344
 21
127.3954864599039
 31
0.0
  0
LINE
  5
91B2
330
9152
100
AcDbEntity
  8
标注线
 48
5.0
370
    -2
100
AcDbLine
 10
1532.11618675344
 20
143.745452459907
 30
0.0
 11
1532.11618675344
 21
136.7909333071087
 31
0.0
  0
LINE
  5
91B3
330
9152
100
AcDbEntity
  8
标注线
 48
5.0
370
    -2
100
AcDbLine
 10
1532.11618675344
 20
128.0454864599039
 30
0.0
 11
1532.11618675344
 21
135.0000056127022
 31
0.0
  0
MTEXT
  5
91B4
330
9152
100
AcDbEntity
  8
标注线
 48
5.0
100
AcDbMText
 10
1532.11618675344
 20
135.8954694599057
 30
0.0
 40
0.65
 41
0.0
 71
     5
 72
     1
  1
\A1;17"
 11
0.0000000000000001
 21
1.0
 31
0.0
 73
     1
 44
1.0
1001
ACAD
1000
MTEXTBEGIN
1070
    73
1070
     1
1070
    44
1040
1.0
1070
    74
1070
     0
1000
MTEXTEND
  0
SOLID
  5
91B5
330
9152
100
AcDbEntity
  8
标注线
 48
5.0
100
AcDbTrace
 10
1532.007853420107
 20
143.745452459907
 30
0.0
 11
1532.224520086773
 21
143.745452459907
 31
0.0
 12
1532.11618675344
 22
144.395452459907
 32
0.0
 13
1532.11618675344
 23
144.395452459907
 33
0.0
  0
SOLID
  5
91B6
330
9152
100
AcDbEntity
  8
标注线
 48
5.0
100
AcDbTrace
 10
1532.007853420107
 20
128.0454864599039
 30
0.0
 11
1532.224520086773
 21
128.0454864599039
 31
0.0
 12
1532.11618675344
 22
127.3954864599039
 32
0.0
 13
1532.11618675344
 23
127.3954864599039
 33
0.0
  0
POINT
  5
91B7
330
9152
100
AcDbEntity
  8
DEFPOINTS
 62
     0
 48
5.0
100
AcDbPoint
 10
1528.999620896678
 20
144.395452459907
 30
0.0
  0
POINT
  5
91B8
330
9152
100
AcDbEntity
  8
DEFPOINTS
 62
     0
 48
5.0
100
AcDbPoint
 10
1528.999620896648
 20
127.3954864599039
 30
0.0
  0
POINT
  5
91B9
330
9152
100
AcDbEntity
  8
DEFPOINTS
 62
     0
 48
5.0
100
AcDbPoint
 10
1532.11618675344
 20
127.3954864599039
 30
0.0
  0
ENDBLK
  5
9154
330
9152
100
AcDbEntity
  8
0
100
AcDbBlockEnd
  0
BLOCK
  5
916C
330
916B
100
AcDbEntity
  8
0
100
AcDbBlockBegin
  2
*D55
 70
     1
 10
0.0
 20
0.0
 30
0.0
  3
*D55
  1

  0
LINE
  5
919C
330
916B
100
AcDbEntity
  8
标注线
 48
5.0
370
    -2
100
AcDbLine
 10
1529.983870896657
 20
93.56828851091405
 30
0.0
 11
1529.983870896657
 21
92.13219558097268
 31
0.0
  0
LINE
  5
919D
330
916B
100
AcDbEntity
  8
标注线
 48
5.0
370
    -2
100
AcDbLine
 10
1506.267382896651
 20
93.56828851091405
 30
0.0
 11
1506.267382896651
 21
92.13219558097268
 31
0.0
  0
LINE
  5
919E
330
916B
100
AcDbEntity
  8
标注线
 48
5.0
370
    -2
100
AcDbLine
 10
1529.333870896657
 20
92.45219558097266
 30
0.0
 11
1519.814525259547
 21
92.45219558097266
 31
0.0
  0
LINE
  5
919F
330
916B
100
AcDbEntity
  8
标注线
 48
5.0
370
    -2
100
AcDbLine
 10
1506.917382896651
 20
92.45219558097266
 30
0.0
 11
1516.436728533762
 21
92.45219558097266
 31
0.0
  0
SOLID
  5
91A0
330
916B
100
AcDbEntity
  8
标注线
 48
5.0
100
AcDbTrace
 10
1529.333870896657
 20
92.560528914306
 30
0.0
 11
1529.333870896657
 21
92.34386224763934
 31
0.0
 12
1529.983870896657
 22
92.45219558097266
 32
0.0
 13
1529.983870896657
 23
92.45219558097266
 33
0.0
  0
SOLID
  5
91A1
330
916B
100
AcDbEntity
  8
标注线
 48
5.0
100
AcDbTrace
 10
1506.917382896651
 20
92.560528914306
 30
0.0
 11
1506.917382896651
 21
92.34386224763934
 31
0.0
 12
1506.267382896651
 22
92.45219558097266
 32
0.0
 13
1506.267382896651
 23
92.45219558097266
 33
0.0
  0
MTEXT
  5
91A2
330
916B
100
AcDbEntity
  8
标注线
 48
5.0
100
AcDbMText
 10
1518.125626896654
 20
92.45219558097266
 30
0.0
 40
0.65
 41
0.0
 71
     5
 72
     1
  1
\A1;23 3/4"
 73
     1
 44
1.0
1001
ACAD
1000
MTEXTBEGIN
1070
    73
1070
     1
1070
    44
1040
1.0
1070
    74
1070
     0
1000
MTEXTEND
  0
POINT
  5
91A3
330
916B
100
AcDbEntity
  8
DEFPOINTS
 62
     0
 48
5.0
100
AcDbPoint
 10
1529.983870896657
 20
94.44828851091404
 30
0.0
  0
POINT
  5
91A4
330
916B
100
AcDbEntity
  8
DEFPOINTS
 62
     0
 48
5.0
100
AcDbPoint
 10
1506.267382896651
 20
94.44828851091404
 30
0.0
  0
POINT
  5
91A5
330
916B
100
AcDbEntity
  8
DEFPOINTS
 62
     0
 48
5.0
100
AcDbPoint
 10
1506.267382896651
 20
92.45219558097266
 30
0.0
  0
ENDBLK
  5
916D
330
916B
100
AcDbEntity
  8
0
100
AcDbBlockEnd
  0
BLOCK
  5
917A
330
9179
100
AcDbEntity
  8
0
100
AcDbBlockBegin
  2
*D56
 70
     1
 10
0.0
 20
0.0
 30
0.0
  3
*D56
  1

  0
LINE
  5
9192
330
9179
100
AcDbEntity
  8
标注线
 48
5.0
370
    -2
100
AcDbLine
 10
1530.863870896657
 20
115.6608445109126
 30
0.0
 11
1532.575859375641
 21
115.6608445109126
 31
0.0
  0
LINE
  5
9193
330
9179
100
AcDbEntity
  8
标注线
 48
5.0
370
    -2
100
AcDbLine
 10
1530.863870896657
 20
94.44828851091404
 30
0.0
 11
1532.575859375641
 21
94.44828851091404
 31
0.0
  0
LINE
  5
9194
330
9179
100
AcDbEntity
  8
标注线
 48
5.0
370
    -2
100
AcDbLine
 10
1532.255859375641
 20
115.0108445109126
 30
0.0
 11
1532.255859375641
 21
106.7434648738055
 31
0.0
  0
LINE
  5
9195
330
9179
100
AcDbEntity
  8
标注线
 48
5.0
370
    -2
100
AcDbLine
 10
1532.255859375641
 20
95.09828851091404
 30
0.0
 11
1532.255859375641
 21
103.3656681480211
 31
0.0
  0
SOLID
  5
9196
330
9179
100
AcDbEntity
  8
标注线
 48
5.0
100
AcDbTrace
 10
1532.147526042308
 20
115.0108445109126
 30
0.0
 11
1532.364192708974
 21
115.0108445109126
 31
0.0
 12
1532.255859375641
 22
115.6608445109126
 32
0.0
 13
1532.255859375641
 23
115.6608445109126
 33
0.0
  0
SOLID
  5
9197
330
9179
100
AcDbEntity
  8
标注线
 48
5.0
100
AcDbTrace
 10
1532.147526042308
 20
95.09828851091404
 30
0.0
 11
1532.364192708974
 21
95.09828851091404
 31
0.0
 12
1532.255859375641
 22
94.44828851091404
 32
0.0
 13
1532.255859375641
 23
94.44828851091404
 33
0.0
  0
MTEXT
  5
9198
330
9179
100
AcDbEntity
  8
标注线
 48
5.0
100
AcDbMText
 10
1532.255859375641
 20
105.0545665109136
 30
0.0
 40
0.65
 41
0.0
 71
     5
 72
     1
  1
\A1;21 1/4"
 11
0.0000000000000001
 21
1.0
 31
0.0
 73
     1
 44
1.0
1001
ACAD
1000
MTEXTBEGIN
1070
    73
1070
     1
1070
    44
1040
1.0
1070
    74
1070
     0
1000
MTEXTEND
  0
POINT
  5
9199
330
9179
100
AcDbEntity
  8
DEFPOINTS
 62
     0
 48
5.0
100
AcDbPoint
 10
1529.983870896657
 20
115.6608445109126
 30
0.0
  0
POINT
  5
919A
330
9179
100
AcDbEntity
  8
DEFPOINTS
 62
     0
 48
5.0
100
AcDbPoint
 10
1529.983870896657
 20
94.44828851091404
 30
0.0
  0
POINT
  5
919B
330
9179
100
AcDbEntity
  8
DEFPOINTS
 62
     0
 48
5.0
100
AcDbPoint
 10
1532.255859375641
 20
94.44828851091404
 30
0.0
  0
ENDBLK
  5
917B
330
9179
100
AcDbEntity
  8
0
100
AcDbBlockEnd
  0
BLOCK
  5
9238
330
9237
100
AcDbEntity
  8
0
 48
5.0
100
AcDbBlockBegin
  2
*D57
 70
     1
 10
0.0
 20
0.0
 30
0.0
  3
*D57
  1

  0
LINE
  5
9239
330
9237
100
AcDbEntity
  8
标注
 62
     0
 48
5.0
370
    -2
100
AcDbLine
 10
159733.5022885012
 20
-66223.6183900779
 30
0.0
 11
159728.9845271795
 21
-66223.6183900779
 31
0.0
  0
LINE
  5
923A
330
9237
100
AcDbEntity
  8
标注
 62
     0
 48
5.0
370
    -2
100
AcDbLine
 10
159718.4313327653
 20
-66219.09084007788
 30
0.0
 11
159724.9845271795
 21
-66219.09084007788
 31
0.0
  0
LINE
  5
923B
330
9237
100
AcDbEntity
  8
标注
 62
     0
 48
5.0
370
    -2
100
AcDbLine
 10
159726.9845271795
 20
-66207.09084007788
 30
0.0
 11
159726.9845271795
 21
-66195.09084007789
 31
0.0
  0
LINE
  5
923C
330
9237
100
AcDbEntity
  8
标注
 62
     0
 48
5.0
370
    -2
100
AcDbLine
 10
159726.9845271795
 20
-66235.61839007789
 30
0.0
 11
159726.9845271795
 21
-66247.6183900779
 31
0.0
  0
LINE
  5
923D
330
9237
100
AcDbEntity
  8
标注
 62
     0
 48
5.0
370
    -2
100
AcDbLine
 10
159726.9845271795
 20
-66219.09084007788
 30
0.0
 11
159726.9845271795
 21
-66223.6183900779
 31
0.0
  0
SOLID
  5
923E
330
9237
100
AcDbEntity
  8
标注
 62
     0
 48
5.0
100
AcDbTrace
 10
159724.9845271795
 20
-66207.09084007788
 30
0.0
 11
159728.9845271795
 21
-66207.09084007788
 31
0.0
 12
159726.9845271795
 22
-66219.09084007788
 32
0.0
 13
159726.9845271795
 23
-66219.09084007788
 33
0.0
  0
SOLID
  5
923F
330
9237
100
AcDbEntity
  8
标注
 62
     0
 48
5.0
100
AcDbTrace
 10
159724.9845271795
 20
-66235.61839007789
 30
0.0
 11
159728.9845271795
 21
-66235.61839007789
 31
0.0
 12
159726.9845271795
 22
-66223.6183900779
 32
0.0
 13
159726.9845271795
 23
-66223.6183900779
 33
0.0
  0
MTEXT
  5
9240
330
9237
100
AcDbEntity
  8
标注
 62
     0
 48
5.0
100
AcDbMText
 10
159726.9845271795
 20
-66264.58505674454
 30
0.0
 40
12.0
 41
0.0
 71
     5
 72
     1
  1
4,5
 11
0.0000000000000001
 21
1.0
 31
0.0
 73
     1
 44
1.0
1001
ACAD
1000
MTEXTBEGIN
1070
    73
1070
     1
1070
    44
1040
1.0
1070
    74
1070
     0
1000
MTEXTEND
  0
POINT
  5
9241
330
9237
100
AcDbEntity
  8
DEFPOINTS
 62
     0
 48
5.0
100
AcDbPoint
 10
159724.5022885012
 20
-66223.6183900779
 30
0.0
  0
POINT
  5
9242
330
9237
100
AcDbEntity
  8
DEFPOINTS
 62
     0
 48
5.0
100
AcDbPoint
 10
159727.4313327653
 20
-66219.09084007788
 30
0.0
  0
POINT
  5
9243
330
9237
100
AcDbEntity
  8
DEFPOINTS
 62
     0
 48
5.0
100
AcDbPoint
 10
159726.9845271795
 20
-66219.09084007788
 30
0.0
  0
ENDBLK
  5
9244
330
9237
100
AcDbEntity
  8
0
 48
5.0
100
AcDbBlockEnd
  0
BLOCK
  5
9246
330
9245
100
AcDbEntity
  8
0
 48
5.0
100
AcDbBlockBegin
  2
*D58
 70
     1
 10
0.0
 20
0.0
 30
0.0
  3
*D58
  1

  0
LINE
  5
9247
330
9245
100
AcDbEntity
  8
标注
 62
     0
 48
5.0
370
    -2
100
AcDbLine
 10
159742.9899302466
 20
-66195.91912231252
 30
0.0
 11
159737.1197114659
 21
-66195.91912231252
 31
0.0
  0
LINE
  5
9248
330
9245
100
AcDbEntity
  8
标注
 62
     0
 48
5.0
370
    -2
100
AcDbLine
 10
159741.7567213624
 20
-66204.91959507787
 30
0.0
 11
159737.1197114659
 21
-66204.91959507787
 31
0.0
  0
LINE
  5
9249
330
9245
100
AcDbEntity
  8
标注
 62
     0
 48
5.0
370
    -2
100
AcDbLine
 10
159735.1197114659
 20
-66183.91912231252
 30
0.0
 11
159735.1197114659
 21
-66171.91912231252
 31
0.0
  0
LINE
  5
924A
330
9245
100
AcDbEntity
  8
标注
 62
     0
 48
5.0
370
    -2
100
AcDbLine
 10
159735.1197114659
 20
-66216.91959507787
 30
0.0
 11
159735.1197114659
 21
-66228.91959507787
 31
0.0
  0
LINE
  5
924B
330
9245
100
AcDbEntity
  8
标注
 62
     0
 48
5.0
370
    -2
100
AcDbLine
 10
159735.1197114659
 20
-66195.91912231252
 30
0.0
 11
159735.1197114659
 21
-66204.91959507787
 31
0.0
  0
SOLID
  5
924C
330
9245
100
AcDbEntity
  8
标注
 62
     0
 48
5.0
100
AcDbTrace
 10
159733.119711466
 20
-66183.91912231252
 30
0.0
 11
159737.1197114659
 21
-66183.91912231252
 31
0.0
 12
159735.1197114659
 22
-66195.91912231252
 32
0.0
 13
159735.1197114659
 23
-66195.91912231252
 33
0.0
  0
SOLID
  5
924D
330
9245
100
AcDbEntity
  8
标注
 62
     0
 48
5.0
100
AcDbTrace
 10
159733.119711466
 20
-66216.91959507787
 30
0.0
 11
159737.1197114659
 21
-66216.91959507787
 31
0.0
 12
159735.1197114659
 22
-66204.91959507787
 32
0.0
 13
159735.1197114659
 23
-66204.91959507787
 33
0.0
  0
MTEXT
  5
924E
330
9245
100
AcDbEntity
  8
标注
 62
     0
 48
5.0
100
AcDbMText
 10
159735.119711466
 20
-66200.41935869517
 30
0.0
 40
12.0
 41
0.0
 71
     5
 72
     1
  1
9
 11
0.0000000000000001
 21
1.0
 31
0.0
 73
     1
 44
1.0
1001
ACAD
1000
MTEXTBEGIN
1070
    73
1070
     1
1070
    44
1040
1.0
1070
    74
1070
     0
1000
MTEXTEND
  0
POINT
  5
924F
330
9245
100
AcDbEntity
  8
DEFPOINTS
 62
     0
 48
5.0
100
AcDbPoint
 10
159733.9899302466
 20
-66195.91912231252
 30
0.0
  0
POINT
  5
9250
330
9245
100
AcDbEntity
  8
DEFPOINTS
 62
     0
 48
5.0
100
AcDbPoint
 10
159732.7567213624
 20
-66204.91959507787
 30
0.0
  0
POINT
  5
9251
330
9245
100
AcDbEntity
  8
DEFPOINTS
 62
     0
 48
5.0
100
AcDbPoint
 10
159735.1197114659
 20
-66204.91959507787
 30
0.0
  0
ENDBLK
  5
9252
330
9245
100
AcDbEntity
  8
0
 48
5.0
100
AcDbBlockEnd
  0
BLOCK
  5
9254
330
9253
100
AcDbEntity
  8
0
 48
5.0
100
AcDbBlockBegin
  2
*D59
 70
     1
 10
0.0
 20
0.0
 30
0.0
  3
*D59
  1

  0
LINE
  5
9255
330
9253
100
AcDbEntity
  8
标注
 62
     0
 48
5.0
370
    -2
100
AcDbLine
 10
159742.7379622466
 20
-66215.34281607789
 30
0.0
 11
159739.2260504921
 21
-66215.34281607789
 31
0.0
  0
LINE
  5
9256
330
9253
100
AcDbEntity
  8
标注
 62
     0
 48
5.0
370
    -2
100
AcDbLine
 10
159742.7930802466
 20
-66237.34277207788
 30
0.0
 11
159739.2260504921
 21
-66237.34277207788
 31
0.0
  0
LINE
  5
9257
330
9253
100
AcDbEntity
  8
标注
 62
     0
 48
5.0
370
    -2
100
AcDbLine
 10
159737.226050492
 20
-66203.34281607789
 30
0.0
 11
159737.226050492
 21
-66191.34281607788
 31
0.0
  0
LINE
  5
9258
330
9253
100
AcDbEntity
  8
标注
 62
     0
 48
5.0
370
    -2
100
AcDbLine
 10
159737.226050492
 20
-66249.34277207788
 30
0.0
 11
159737.226050492
 21
-66261.34277207788
 31
0.0
  0
LINE
  5
9259
330
9253
100
AcDbEntity
  8
标注
 62
     0
 48
5.0
370
    -2
100
AcDbLine
 10
159737.226050492
 20
-66215.34281607789
 30
0.0
 11
159737.226050492
 21
-66237.34277207788
 31
0.0
  0
SOLID
  5
925A
330
9253
100
AcDbEntity
  8
标注
 62
     0
 48
5.0
100
AcDbTrace
 10
159735.226050492
 20
-66203.34281607789
 30
0.0
 11
159739.2260504921
 21
-66203.34281607789
 31
0.0
 12
159737.226050492
 22
-66215.34281607789
 32
0.0
 13
159737.226050492
 23
-66215.34281607789
 33
0.0
  0
SOLID
  5
925B
330
9253
100
AcDbEntity
  8
标注
 62
     0
 48
5.0
100
AcDbTrace
 10
159735.226050492
 20
-66249.34277207788
 30
0.0
 11
159739.2260504921
 21
-66249.34277207788
 31
0.0
 12
159737.226050492
 22
-66237.34277207788
 32
0.0
 13
159737.226050492
 23
-66237.34277207788
 33
0.0
  0
MTEXT
  5
925C
330
9253
100
AcDbEntity
  8
标注
 62
     0
 48
5.0
100
AcDbMText
 10
159737.2260504921
 20
-66226.34279407786
 30
0.0
 40
12.0
 41
0.0
 71
     5
 72
     1
  1
22
 11
0.0000000000000001
 21
1.0
 31
0.0
 73
     1
 44
1.0
1001
ACAD
1000
MTEXTBEGIN
1070
    73
1070
     1
1070
    44
1040
1.0
1070
    74
1070
     0
1000
MTEXTEND
  0
POINT
  5
925D
330
9253
100
AcDbEntity
  8
DEFPOINTS
 62
     0
 48
5.0
100
AcDbPoint
 10
159733.7379622466
 20
-66215.34281607789
 30
0.0
  0
POINT
  5
925E
330
9253
100
AcDbEntity
  8
DEFPOINTS
 62
     0
 48
5.0
100
AcDbPoint
 10
159733.7930802465
 20
-66237.34277207788
 30
0.0
  0
POINT
  5
925F
330
9253
100
AcDbEntity
  8
DEFPOINTS
 62
     0
 48
5.0
100
AcDbPoint
 10
159737.226050492
 20
-66237.34277207788
 30
0.0
  0
ENDBLK
  5
9260
330
9253
100
AcDbEntity
  8
0
 48
5.0
100
AcDbBlockEnd
  0
BLOCK
  5
9262
330
9261
100
AcDbEntity
  8
0
 48
5.0
100
AcDbBlockBegin
  2
*D60
 70
     1
 10
0.0
 20
0.0
 30
0.0
  3
*D60
  1

  0
LINE
  5
9263
330
9261
100
AcDbEntity
  8
标注
 62
     0
 48
5.0
370
    -2
100
AcDbLine
 10
159709.4860422466
 20
-66246.14592207789
 30
0.0
 11
159709.4860422466
 21
-66244.0975869247
 31
0.0
  0
LINE
  5
9264
330
9261
100
AcDbEntity
  8
标注
 62
     0
 48
5.0
370
    -2
100
AcDbLine
 10
159733.9899302466
 20
-66246.14592207789
 30
0.0
 11
159733.9899302466
 21
-66244.0975869247
 31
0.0
  0
LINE
  5
9265
330
9261
100
AcDbEntity
  8
标注
 62
     0
 48
5.0
370
    -2
100
AcDbLine
 10
159697.4860422466
 20
-66242.09758692471
 30
0.0
 11
159685.4860422466
 21
-66242.09758692471
 31
0.0
  0
LINE
  5
9266
330
9261
100
AcDbEntity
  8
标注
 62
     0
 48
5.0
370
    -2
100
AcDbLine
 10
159745.9899302466
 20
-66242.09758692471
 30
0.0
 11
159757.9899302466
 21
-66242.09758692471
 31
0.0
  0
LINE
  5
9267
330
9261
100
AcDbEntity
  8
标注
 62
     0
 48
5.0
370
    -2
100
AcDbLine
 10
159709.4860422466
 20
-66242.09758692471
 30
0.0
 11
159733.9899302466
 21
-66242.09758692471
 31
0.0
  0
SOLID
  5
9268
330
9261
100
AcDbEntity
  8
标注
 62
     0
 48
5.0
100
AcDbTrace
 10
159697.4860422466
 20
-66240.0975869247
 30
0.0
 11
159697.4860422466
 21
-66244.0975869247
 31
0.0
 12
159709.4860422466
 22
-66242.09758692471
 32
0.0
 13
159709.4860422466
 23
-66242.09758692471
 33
0.0
  0
SOLID
  5
9269
330
9261
100
AcDbEntity
  8
标注
 62
     0
 48
5.0
100
AcDbTrace
 10
159745.9899302466
 20
-66240.0975869247
 30
0.0
 11
159745.9899302466
 21
-66244.0975869247
 31
0.0
 12
159733.9899302466
 22
-66242.09758692471
 32
0.0
 13
159733.9899302466
 23
-66242.09758692471
 33
0.0
  0
MTEXT
  5
926A
330
9261
100
AcDbEntity
  8
标注
 62
     0
 48
5.0
100
AcDbMText
 10
159779.0899302466
 20
-66242.09758692471
 30
0.0
 40
12.0
 41
0.0
 71
     5
 72
     1
  1
24,5
 73
     1
 44
1.0
1001
ACAD
1000
MTEXTBEGIN
1070
    73
1070
     1
1070
    44
1040
1.0
1070
    74
1070
     0
1000
MTEXTEND
  0
POINT
  5
926B
330
9261
100
AcDbEntity
  8
DEFPOINTS
 62
     0
 48
5.0
100
AcDbPoint
 10
159709.4860422466
 20
-66237.14592207789
 30
0.0
  0
POINT
  5
926C
330
9261
100
AcDbEntity
  8
DEFPOINTS
 62
     0
 48
5.0
100
AcDbPoint
 10
159733.9899302466
 20
-66237.14592207789
 30
0.0
  0
POINT
  5
926D
330
9261
100
AcDbEntity
  8
DEFPOINTS
 62
     0
 48
5.0
100
AcDbPoint
 10
159733.9899302466
 20
-66242.09758692471
 30
0.0
  0
ENDBLK
  5
926E
330
9261
100
AcDbEntity
  8
0
 48
5.0
100
AcDbBlockEnd
  0
BLOCK
  5
9270
330
926F
100
AcDbEntity
  8
0
 48
5.0
100
AcDbBlockBegin
  2
*D61
 70
     1
 10
0.0
 20
0.0
 30
0.0
  3
*D61
  1

  0
LINE
  5
9271
330
926F
100
AcDbEntity
  8
标注
 62
     0
 48
5.0
370
    -2
100
AcDbLine
 10
159696.7397081057
 20
-66229.88449203307
 30
0.0
 11
159708.3796045691
 21
-66226.96681996076
 31
0.0
  0
LINE
  5
9272
330
926F
100
AcDbEntity
  8
标注
 62
     0
 48
5.0
370
    -2
100
AcDbLine
 10
159735.0963679241
 20
-66220.26996019501
 30
0.0
 11
159746.7362643875
 21
-66217.35228812271
 31
0.0
  0
MTEXT
  5
9273
102
{ACAD_XDICTIONARY
360
9551
102
}
330
926F
100
AcDbEntity
  8
标注
 62
     0
 48
5.0
100
AcDbMText
 10
159675.923840232
 20
-66235.10222541643
 30
0.0
 40
12.0
 41
0.0
 71
     5
 72
     1
  1
\U+22053,5
 11
0.969991371949426
 21
0.2431393393584636
 31
0.0
 73
     1
 44
1.0
1001
ACAD
1000
MTEXTBEGIN
1070
    73
1070
     1
1070
    44
1040
1.0
1070
    74
1070
     0
1000
MTEXTEND
  0
LINE
  5
9274
330
926F
100
AcDbEntity
  8
标注
 62
     0
 48
5.0
370
    -2
100
AcDbLine
 10
159723.4564714607
 20
-66223.18763226732
 30
0.0
 11
159720.0195010325
 21
-66224.04914788848
 31
0.0
  0
SOLID
  5
9275
330
926F
100
AcDbEntity
  8
标注
 62
     0
 48
5.0
100
AcDbTrace
 10
159734.6100892454
 20
-66218.32997745112
 30
0.0
 11
159735.5826466028
 21
-66222.20994293892
 31
0.0
 12
159723.4564714607
 22
-66223.18763226732
 32
0.0
 13
159723.4564714607
 23
-66223.18763226732
 33
0.0
  0
SOLID
  5
9276
330
926F
100
AcDbEntity
  8
标注
 62
     0
 48
5.0
100
AcDbTrace
 10
159707.8933258904
 20
-66225.02683721689
 30
0.0
 11
159708.8658832478
 21
-66228.90680270467
 31
0.0
 12
159720.0195010325
 22
-66224.04914788848
 32
0.0
 13
159720.0195010325
 23
-66224.04914788848
 33
0.0
  0
POINT
  5
9277
330
926F
100
AcDbEntity
  8
DEFPOINTS
 62
     0
 48
5.0
100
AcDbPoint
 10
159720.0195010325
 20
-66224.04914788848
 30
0.0
  0
POINT
  5
9278
330
926F
100
AcDbEntity
  8
DEFPOINTS
 62
     0
 48
5.0
100
AcDbPoint
 10
159723.4564714607
 20
-66223.18763226732
 30
0.0
  0
ENDBLK
  5
9279
330
926F
100
AcDbEntity
  8
0
 48
5.0
100
AcDbBlockEnd
  0
BLOCK
  5
927B
330
927A
100
AcDbEntity
  8
0
 48
5.0
100
AcDbBlockBegin
  2
*D62
 70
     1
 10
0.0
 20
0.0
 30
0.0
  3
*D62
  1

  0
LINE
  5
927C
330
927A
100
AcDbEntity
  8
标注
 62
     0
 48
5.0
370
    -2
100
AcDbLine
 10
159700.1658657816
 20
-66238.63384505648
 30
0.0
 11
159710.0148523907
 21
-66231.7783755048
 31
0.0
  0
LINE
  5
927D
330
927A
100
AcDbEntity
  8
标注
 62
     0
 48
5.0
370
    -2
100
AcDbLine
 10
159733.4611201026
 20
-66215.45840465104
 30
0.0
 11
159743.3101067117
 21
-66208.60293509936
 31
0.0
  0
MTEXT
  5
927E
102
{ACAD_XDICTIONARY
360
9553
102
}
330
927A
100
AcDbEntity
  8
标注
 62
     0
 48
5.0
100
AcDbMText
 10
159682.4706441964
 20
-66250.95075212537
 30
0.0
 40
12.0
 41
0.0
 71
     5
 72
     1
  1
\U+22054,6
 11
0.820748884091023
 21
0.5712891293061163
 31
0.0
 73
     1
 44
1.0
1001
ACAD
1000
MTEXTBEGIN
1070
    73
1070
     1
1070
    44
1040
1.0
1070
    74
1070
     0
1000
MTEXTEND
  0
LINE
  5
927F
330
927A
100
AcDbEntity
  8
标注
 62
     0
 48
5.0
370
    -2
100
AcDbLine
 10
159723.6121334935
 20
-66222.31387420272
 30
0.0
 11
159719.8638389998
 21
-66224.92290595313
 31
0.0
  0
SOLID
  5
9280
330
927A
100
AcDbEntity
  8
标注
 62
     0
 48
5.0
100
AcDbTrace
 10
159732.318541844
 20
-66213.81690688285
 30
0.0
 11
159734.6036983612
 21
-66217.09990241921
 31
0.0
 12
159723.6121334935
 22
-66222.31387420272
 32
0.0
 13
159723.6121334935
 23
-66222.31387420272
 33
0.0
  0
SOLID
  5
9281
330
927A
100
AcDbEntity
  8
标注
 62
     0
 48
5.0
100
AcDbTrace
 10
159708.872274132
 20
-66230.13687773663
 30
0.0
 11
159711.1574306493
 21
-66233.41987327297
 31
0.0
 12
159719.8638389998
 22
-66224.92290595313
 32
0.0
 13
159719.8638389998
 23
-66224.92290595313
 33
0.0
  0
POINT
  5
9282
330
927A
100
AcDbEntity
  8
DEFPOINTS
 62
     0
 48
5.0
100
AcDbPoint
 10
159719.8638389998
 20
-66224.92290595313
 30
0.0
  0
POINT
  5
9283
330
927A
100
AcDbEntity
  8
DEFPOINTS
 62
     0
 48
5.0
100
AcDbPoint
 10
159723.6121334935
 20
-66222.31387420272
 30
0.0
  0
ENDBLK
  5
9284
330
927A
100
AcDbEntity
  8
0
 48
5.0
100
AcDbBlockEnd
  0
BLOCK
  5
9286
330
9285
100
AcDbEntity
  8
0
 48
5.0
100
AcDbBlockBegin
  2
*D63
 70
     1
 10
0.0
 20
0.0
 30
0.0
  3
*D63
  1

  0
LINE
  5
9287
330
9285
100
AcDbEntity
  8
标注
 62
     0
 48
5.0
370
    -2
100
AcDbLine
 10
159710.8639922466
 20
-66244.69710607788
 30
0.0
 11
159710.8639922466
 21
-66242.04632578234
 31
0.0
  0
LINE
  5
9288
330
9285
100
AcDbEntity
  8
标注
 62
     0
 48
5.0
370
    -2
100
AcDbLine
 10
159732.6119802466
 20
-66244.69710607788
 30
0.0
 11
159732.6119802466
 21
-66242.04632578234
 31
0.0
  0
LINE
  5
9289
330
9285
100
AcDbEntity
  8
标注
 62
     0
 48
5.0
370
    -2
100
AcDbLine
 10
159698.8639922466
 20
-66240.04632578234
 30
0.0
 11
159686.8639922466
 21
-66240.04632578234
 31
0.0
  0
LINE
  5
928A
330
9285
100
AcDbEntity
  8
标注
 62
     0
 48
5.0
370
    -2
100
AcDbLine
 10
159744.6119802466
 20
-66240.04632578234
 30
0.0
 11
159756.6119802466
 21
-66240.04632578234
 31
0.0
  0
LINE
  5
928B
330
9285
100
AcDbEntity
  8
标注
 62
     0
 48
5.0
370
    -2
100
AcDbLine
 10
159710.8639922466
 20
-66240.04632578234
 30
0.0
 11
159732.6119802466
 21
-66240.04632578234
 31
0.0
  0
SOLID
  5
928C
330
9285
100
AcDbEntity
  8
标注
 62
     0
 48
5.0
100
AcDbTrace
 10
159698.8639922466
 20
-66238.04632578234
 30
0.0
 11
159698.8639922466
 21
-66242.04632578234
 31
0.0
 12
159710.8639922466
 22
-66240.04632578234
 32
0.0
 13
159710.8639922466
 23
-66240.04632578234
 33
0.0
  0
SOLID
  5
928D
330
9285
100
AcDbEntity
  8
标注
 62
     0
 48
5.0
100
AcDbTrace
 10
159744.6119802466
 20
-66238.04632578234
 30
0.0
 11
159744.6119802466
 21
-66242.04632578234
 31
0.0
 12
159732.6119802466
 22
-66240.04632578234
 32
0.0
 13
159732.6119802466
 23
-66240.04632578234
 33
0.0
  0
MTEXT
  5
928E
330
9285
100
AcDbEntity
  8
标注
 62
     0
 48
5.0
100
AcDbMText
 10
159777.7453135799
 20
-66240.04632578234
 30
0.0
 40
12.0
 41
0.0
 71
     5
 72
     1
  1
21,7
 73
     1
 44
1.0
1001
ACAD
1000
MTEXTBEGIN
1070
    73
1070
     1
1070
    44
1040
1.0
1070
    74
1070
     0
1000
MTEXTEND
  0
POINT
  5
928F
330
9285
100
AcDbEntity
  8
DEFPOINTS
 62
     0
 48
5.0
100
AcDbPoint
 10
159710.8639922466
 20
-66235.69710607789
 30
0.0
  0
POINT
  5
9290
330
9285
100
AcDbEntity
  8
DEFPOINTS
 62
     0
 48
5.0
100
AcDbPoint
 10
159732.6119802466
 20
-66235.69710607789
 30
0.0
  0
POINT
  5
9291
330
9285
100
AcDbEntity
  8
DEFPOINTS
 62
     0
 48
5.0
100
AcDbPoint
 10
159732.6119802466
 20
-66240.04632578234
 30
0.0
  0
ENDBLK
  5
9292
330
9285
100
AcDbEntity
  8
0
 48
5.0
100
AcDbBlockEnd
  0
BLOCK
  5
9294
330
9293
100
AcDbEntity
  8
0
 48
5.0
100
AcDbBlockBegin
  2
*D64
 70
     1
 10
0.0
 20
0.0
 30
0.0
  3
*D64
  1

  0
LINE
  5
9295
330
9293
100
AcDbEntity
  8
标注
 62
     0
 48
5.0
370
    -2
100
AcDbLine
 10
159742.2305709602
 20
-66219.09084007788
 30
0.0
 11
159737.6556283199
 21
-66219.09084007788
 31
0.0
  0
LINE
  5
9296
330
9293
100
AcDbEntity
  8
标注
 62
     0
 48
5.0
370
    -2
100
AcDbLine
 10
159741.6119802466
 20
-66236.09080607788
 30
0.0
 11
159737.6556283199
 21
-66236.09080607788
 31
0.0
  0
LINE
  5
9297
330
9293
100
AcDbEntity
  8
标注
 62
     0
 48
5.0
370
    -2
100
AcDbLine
 10
159735.6556283199
 20
-66207.09084007788
 30
0.0
 11
159735.6556283199
 21
-66195.09084007789
 31
0.0
  0
LINE
  5
9298
330
9293
100
AcDbEntity
  8
标注
 62
     0
 48
5.0
370
    -2
100
AcDbLine
 10
159735.6556283199
 20
-66248.09080607788
 30
0.0
 11
159735.6556283199
 21
-66260.09080607789
 31
0.0
  0
LINE
  5
9299
330
9293
100
AcDbEntity
  8
标注
 62
     0
 48
5.0
370
    -2
100
AcDbLine
 10
159735.6556283199
 20
-66219.09084007788
 30
0.0
 11
159735.6556283199
 21
-66236.09080607788
 31
0.0
  0
SOLID
  5
929A
330
9293
100
AcDbEntity
  8
标注
 62
     0
 48
5.0
100
AcDbTrace
 10
159733.6556283199
 20
-66207.09084007788
 30
0.0
 11
159737.6556283199
 21
-66207.09084007788
 31
0.0
 12
159735.6556283199
 22
-66219.09084007788
 32
0.0
 13
159735.6556283199
 23
-66219.09084007788
 33
0.0
  0
SOLID
  5
929B
330
9293
100
AcDbEntity
  8
标注
 62
     0
 48
5.0
100
AcDbTrace
 10
159733.6556283199
 20
-66248.09080607788
 30
0.0
 11
159737.6556283199
 21
-66248.09080607788
 31
0.0
 12
159735.6556283199
 22
-66236.09080607788
 32
0.0
 13
159735.6556283199
 23
-66236.09080607788
 33
0.0
  0
MTEXT
  5
929C
330
9293
100
AcDbEntity
  8
标注
 62
     0
 48
5.0
100
AcDbMText
 10
159735.6556283199
 20
-66227.59082307787
 30
0.0
 40
12.0
 41
0.0
 71
     5
 72
     1
  1
17
 11
0.0000000000000001
 21
1.0
 31
0.0
 73
     1
 44
1.0
1001
ACAD
1000
MTEXTBEGIN
1070
    73
1070
     1
1070
    44
1040
1.0
1070
    74
1070
     0
1000
MTEXTEND
  0
POINT
  5
929D
330
9293
100
AcDbEntity
  8
DEFPOINTS
 62
     0
 48
5.0
100
AcDbPoint
 10
159733.2305709602
 20
-66219.09084007788
 30
0.0
  0
POINT
  5
929E
330
9293
100
AcDbEntity
  8
DEFPOINTS
 62
     0
 48
5.0
100
AcDbPoint
 10
159732.6119802466
 20
-66236.09080607788
 30
0.0
  0
POINT
  5
929F
330
9293
100
AcDbEntity
  8
DEFPOINTS
 62
     0
 48
5.0
100
AcDbPoint
 10
159735.6556283199
 20
-66236.09080607788
 30
0.0
  0
ENDBLK
  5
92A0
330
9293
100
AcDbEntity
  8
0
 48
5.0
100
AcDbBlockEnd
  0
BLOCK
  5
92A2
330
92A1
100
AcDbEntity
  8
0
 48
5.0
100
AcDbBlockBegin
  2
*D65
 70
     1
 10
0.0
 20
0.0
 30
0.0
  3
*D65
  1

  0
LINE
  5
92A3
330
92A1
100
AcDbEntity
  8
标注
 62
     0
 48
5.0
370
    -2
100
AcDbLine
 10
159733.5962302466
 20
-66288.13425865017
 30
0.0
 11
159733.5962302466
 21
-66282.13035158011
 31
0.0
  0
LINE
  5
92A4
330
92A1
100
AcDbEntity
  8
标注
 62
     0
 48
5.0
370
    -2
100
AcDbLine
 10
159709.8797422466
 20
-66288.13425865017
 30
0.0
 11
159709.8797422466
 21
-66282.13035158011
 31
0.0
  0
LINE
  5
92A5
330
92A1
100
AcDbEntity
  8
标注
 62
     0
 48
5.0
370
    -2
100
AcDbLine
 10
159747.5962302466
 20
-66280.13035158011
 30
0.0
 11
159761.5962302466
 21
-66280.13035158011
 31
0.0
  0
LINE
  5
92A6
330
92A1
100
AcDbEntity
  8
标注
 62
     0
 48
5.0
370
    -2
100
AcDbLine
 10
159695.8797422466
 20
-66280.13035158011
 30
0.0
 11
159681.8797422466
 21
-66280.13035158011
 31
0.0
  0
LINE
  5
92A7
330
92A1
100
AcDbEntity
  8
标注
 62
     0
 48
5.0
370
    -2
100
AcDbLine
 10
159733.5962302466
 20
-66280.13035158011
 30
0.0
 11
159709.8797422466
 21
-66280.13035158011
 31
0.0
  0
SOLID
  5
92A8
330
92A1
100
AcDbEntity
  8
标注
 62
     0
 48
5.0
100
AcDbTrace
 10
159747.5962302466
 20
-66277.79701824678
 30
0.0
 11
159747.5962302466
 21
-66282.46368491343
 31
0.0
 12
159733.5962302466
 22
-66280.13035158011
 32
0.0
 13
159733.5962302466
 23
-66280.13035158011
 33
0.0
  0
SOLID
  5
92A9
330
92A1
100
AcDbEntity
  8
标注
 62
     0
 48
5.0
100
AcDbTrace
 10
159695.8797422466
 20
-66277.79701824678
 30
0.0
 11
159695.8797422466
 21
-66282.46368491343
 31
0.0
 12
159709.8797422466
 22
-66280.13035158011
 32
0.0
 13
159709.8797422466
 23
-66280.13035158011
 33
0.0
  0
MTEXT
  5
92AA
330
92A1
100
AcDbEntity
  8
标注
 62
     0
 48
5.0
100
AcDbMText
 10
159658.0575200244
 20
-66280.13035158011
 30
0.0
 40
14.0
 41
0.0
 71
     5
 72
     1
  1
23,7
 73
     1
 44
1.0
1001
ACAD
1000
MTEXTBEGIN
1070
    73
1070
     1
1070
    44
1040
1.0
1070
    74
1070
     0
1000
MTEXTEND
  0
POINT
  5
92AB
330
92A1
100
AcDbEntity
  8
DEFPOINTS
 62
     0
 48
5.0
100
AcDbPoint
 10
159733.5962302466
 20
-66278.13425865017
 30
0.0
  0
POINT
  5
92AC
330
92A1
100
AcDbEntity
  8
DEFPOINTS
 62
     0
 48
5.0
100
AcDbPoint
 10
159709.8797422466
 20
-66278.13425865017
 30
0.0
  0
POINT
  5
92AD
330
92A1
100
AcDbEntity
  8
DEFPOINTS
 62
     0
 48
5.0
100
AcDbPoint
 10
159709.8797422466
 20
-66280.13035158011
 30
0.0
  0
ENDBLK
  5
92AE
330
92A1
100
AcDbEntity
  8
0
 48
5.0
100
AcDbBlockEnd
  0
BLOCK
  5
92B0
330
92AF
100
AcDbEntity
  8
0
 48
5.0
100
AcDbBlockBegin
  2
*D66
 70
     1
 10
0.0
 20
0.0
 30
0.0
  3
*D66
  1

  0
LINE
  5
92B1
330
92AF
100
AcDbEntity
  8
标注
 62
     0
 48
5.0
370
    -2
100
AcDbLine
 10
159743.5962302466
 20
-66256.92170265017
 30
0.0
 11
159737.8682187256
 21
-66256.92170265017
 31
0.0
  0
LINE
  5
92B2
330
92AF
100
AcDbEntity
  8
标注
 62
     0
 48
5.0
370
    -2
100
AcDbLine
 10
159743.5962302466
 20
-66278.13425865017
 30
0.0
 11
159737.8682187256
 21
-66278.13425865017
 31
0.0
  0
LINE
  5
92B3
330
92AF
100
AcDbEntity
  8
标注
 62
     0
 48
5.0
370
    -2
100
AcDbLine
 10
159735.8682187256
 20
-66242.92170265017
 30
0.0
 11
159735.8682187256
 21
-66228.92170265017
 31
0.0
  0
LINE
  5
92B4
330
92AF
100
AcDbEntity
  8
标注
 62
     0
 48
5.0
370
    -2
100
AcDbLine
 10
159735.8682187256
 20
-66292.13425865017
 30
0.0
 11
159735.8682187256
 21
-66306.13425865017
 31
0.0
  0
LINE
  5
92B5
330
92AF
100
AcDbEntity
  8
标注
 62
     0
 48
5.0
370
    -2
100
AcDbLine
 10
159735.8682187256
 20
-66256.92170265017
 30
0.0
 11
159735.8682187256
 21
-66278.13425865017
 31
0.0
  0
SOLID
  5
92B6
330
92AF
100
AcDbEntity
  8
标注
 62
     0
 48
5.0
100
AcDbTrace
 10
159733.5348853922
 20
-66242.92170265017
 30
0.0
 11
159738.2015520589
 21
-66242.92170265017
 31
0.0
 12
159735.8682187256
 22
-66256.92170265017
 32
0.0
 13
159735.8682187256
 23
-66256.92170265017
 33
0.0
  0
SOLID
  5
92B7
330
92AF
100
AcDbEntity
  8
标注
 62
     0
 48
5.0
100
AcDbTrace
 10
159733.5348853922
 20
-66292.13425865017
 30
0.0
 11
159738.2015520589
 21
-66292.13425865017
 31
0.0
 12
159735.8682187256
 22
-66278.13425865017
 32
0.0
 13
159735.8682187256
 23
-66278.13425865017
 33
0.0
  0
MTEXT
  5
92B8
330
92AF
100
AcDbEntity
  8
标注
 62
     0
 48
5.0
100
AcDbMText
 10
159735.8682187256
 20
-66329.9175919835
 30
0.0
 40
14.0
 41
0.0
 71
     5
 72
     1
  1
21,2
 11
0.0000000000000001
 21
1.0
 31
0.0
 73
     1
 44
1.0
1001
ACAD
1000
MTEXTBEGIN
1070
    73
1070
     1
1070
    44
1040
1.0
1070
    74
1070
     0
1000
MTEXTEND
  0
POINT
  5
92B9
330
92AF
100
AcDbEntity
  8
DEFPOINTS
 62
     0
 48
5.0
100
AcDbPoint
 10
159733.5962302466
 20
-66256.92170265017
 30
0.0
  0
POINT
  5
92BA
330
92AF
100
AcDbEntity
  8
DEFPOINTS
 62
     0
 48
5.0
100
AcDbPoint
 10
159733.5962302466
 20
-66278.13425865017
 30
0.0
  0
POINT
  5
92BB
330
92AF
100
AcDbEntity
  8
DEFPOINTS
 62
     0
 48
5.0
100
AcDbPoint
 10
159735.8682187256
 20
-66278.13425865017
 30
0.0
  0
ENDBLK
  5
92BC
330
92AF
100
AcDbEntity
  8
0
 48
5.0
100
AcDbBlockEnd
  0
BLOCK
  5
93C4
330
93C3
100
AcDbEntity
  8
0
100
AcDbBlockBegin
  2
*D68
 70
     1
 10
0.0
 20
0.0
 30
0.0
  3
*D68
  1

  0
LINE
  5
94D1
330
93C3
100
AcDbEntity
  8
标注线
 48
5.0
370
    -2
100
AcDbLine
 10
1593.822135174594
 20
138.7660878315257
 30
0.0
 11
1595.744373852913
 21
138.7660878315257
 31
0.0
  0
LINE
  5
94D2
330
93C3
100
AcDbEntity
  8
标注线
 48
5.0
370
    -2
100
AcDbLine
 10
1594.9911794387
 20
143.2936378315391
 30
0.0
 11
1595.104373852914
 21
143.2936378315391
 31
0.0
  0
LINE
  5
94D3
330
93C3
100
AcDbEntity
  8
标注线
 48
5.0
370
    -2
100
AcDbLine
 10
1595.424373852913
 20
139.4160878315257
 30
0.0
 11
1595.424373852913
 21
142.6436378315391
 31
0.0
  0
MTEXT
  5
94D4
330
93C3
100
AcDbEntity
  8
标注线
 48
5.0
100
AcDbMText
 10
1595.424373852913
 20
97.79942116488042
 30
0.0
 40
0.65
 41
0.0
 71
     5
 72
     1
  1
\A1;4 1/2"
 11
0.0000000000000001
 21
1.0
 31
0.0
 73
     1
 44
1.0
1001
ACAD
1000
MTEXTBEGIN
1070
    73
1070
     1
1070
    44
1040
1.0
1070
    74
1070
     0
1000
MTEXTEND
  0
SOLID
  5
94D5
330
93C3
100
AcDbEntity
  8
标注线
 48
5.0
100
AcDbTrace
 10
1595.31604051958
 20
139.4160878315257
 30
0.0
 11
1595.532707186247
 21
139.4160878315257
 31
0.0
 12
1595.424373852913
 22
138.7660878315257
 32
0.0
 13
1595.424373852913
 23
138.7660878315257
 33
0.0
  0
SOLID
  5
94D6
330
93C3
100
AcDbEntity
  8
标注线
 48
5.0
100
AcDbTrace
 10
1595.31604051958
 20
142.6436378315391
 30
0.0
 11
1595.532707186247
 21
142.6436378315391
 31
0.0
 12
1595.424373852913
 22
143.2936378315391
 32
0.0
 13
1595.424373852913
 23
143.2936378315391
 33
0.0
  0
POINT
  5
94D7
330
93C3
100
AcDbEntity
  8
DEFPOINTS
 62
     0
 48
5.0
100
AcDbPoint
 10
1592.942135174594
 20
138.7660878315257
 30
0.0
  0
POINT
  5
94D8
330
93C3
100
AcDbEntity
  8
DEFPOINTS
 62
     0
 48
5.0
100
AcDbPoint
 10
1595.8711794387
 20
143.2936378315391
 30
0.0
  0
POINT
  5
94D9
330
93C3
100
AcDbEntity
  8
DEFPOINTS
 62
     0
 48
5.0
100
AcDbPoint
 10
1595.424373852913
 20
143.2936378315391
 30
0.0
  0
ENDBLK
  5
93C5
330
93C3
100
AcDbEntity
  8
0
100
AcDbBlockEnd
  0
BLOCK
  5
93D2
330
93D1
100
AcDbEntity
  8
0
100
AcDbBlockBegin
  2
*D69
 70
     1
 10
0.0
 20
0.0
 30
0.0
  3
*D69
  1

  0
LINE
  5
94DA
330
93D1
100
AcDbEntity
  8
标注线
 48
5.0
370
    -2
100
AcDbLine
 10
1603.309776919957
 20
166.4653555969018
 30
0.0
 11
1603.879558139366
 21
166.4653555969018
 31
0.0
  0
LINE
  5
94DB
330
93D1
100
AcDbEntity
  8
标注线
 48
5.0
370
    -2
100
AcDbLine
 10
1602.076568035763
 20
157.4648828315587
 30
0.0
 11
1603.879558139366
 21
157.4648828315587
 31
0.0
  0
LINE
  5
94DC
330
93D1
100
AcDbEntity
  8
标注线
 48
5.0
370
    -2
100
AcDbLine
 10
1603.559558139367
 20
165.8153555969018
 30
0.0
 11
1603.559558139367
 21
162.63866969172
 31
0.0
  0
LINE
  5
94DD
330
93D1
100
AcDbEntity
  8
标注线
 48
5.0
370
    -2
100
AcDbLine
 10
1603.559558139367
 20
158.1148828315587
 30
0.0
 11
1603.559558139367
 21
161.2915687367405
 31
0.0
  0
MTEXT
  5
94DE
330
93D1
100
AcDbEntity
  8
标注线
 48
5.0
100
AcDbMText
 10
1603.559558139367
 20
161.9651192142305
 30
0.0
 40
0.65
 41
0.0
 71
     5
 72
     1
  1
\A1;9"
 11
0.0000000000000001
 21
1.0
 31
0.0
 73
     1
 44
1.0
1001
ACAD
1000
MTEXTBEGIN
1070
    73
1070
     1
1070
    44
1040
1.0
1070
    74
1070
     0
1000
MTEXTEND
  0
SOLID
  5
94DF
330
93D1
100
AcDbEntity
  8
标注线
 48
5.0
100
AcDbTrace
 10
1603.451224806033
 20
165.8153555969018
 30
0.0
 11
1603.6678914727
 21
165.8153555969018
 31
0.0
 12
1603.559558139367
 22
166.4653555969018
 32
0.0
 13
1603.559558139367
 23
166.4653555969018
 33
0.0
  0
SOLID
  5
94E0
330
93D1
100
AcDbEntity
  8
标注线
 48
5.0
100
AcDbTrace
 10
1603.451224806033
 20
158.1148828315587
 30
0.0
 11
1603.6678914727
 21
158.1148828315587
 31
0.0
 12
1603.559558139367
 22
157.4648828315587
 32
0.0
 13
1603.559558139367
 23
157.4648828315587
 33
0.0
  0
POINT
  5
94E1
330
93D1
100
AcDbEntity
  8
DEFPOINTS
 62
     0
 48
5.0
100
AcDbPoint
 10
1602.429776919957
 20
166.4653555969018
 30
0.0
  0
POINT
  5
94E2
330
93D1
100
AcDbEntity
  8
DEFPOINTS
 62
     0
 48
5.0
100
AcDbPoint
 10
1601.196568035763
 20
157.4648828315587
 30
0.0
  0
POINT
  5
94E3
330
93D1
100
AcDbEntity
  8
DEFPOINTS
 62
     0
 48
5.0
100
AcDbPoint
 10
1603.559558139367
 20
157.4648828315587
 30
0.0
  0
ENDBLK
  5
93D3
330
93D1
100
AcDbEntity
  8
0
100
AcDbBlockEnd
  0
BLOCK
  5
93E0
330
93DF
100
AcDbEntity
  8
0
100
AcDbBlockBegin
  2
*D70
 70
     1
 10
0.0
 20
0.0
 30
0.0
  3
*D70
  1

  0
LINE
  5
94BD
330
93DF
100
AcDbEntity
  8
标注线
 48
5.0
370
    -2
100
AcDbLine
 10
1603.05780891996
 20
147.0416618315396
 30
0.0
 11
1605.985897165464
 21
147.0416618315396
 31
0.0
  0
LINE
  5
94BE
330
93DF
100
AcDbEntity
  8
标注线
 48
5.0
370
    -2
100
AcDbLine
 10
1603.112926919949
 20
125.0417058315399
 30
0.0
 11
1605.985897165464
 21
125.0417058315399
 31
0.0
  0
LINE
  5
94BF
330
93DF
100
AcDbEntity
  8
标注线
 48
5.0
370
    -2
100
AcDbLine
 10
1605.665897165463
 20
146.3916618315396
 30
0.0
 11
1605.665897165463
 21
136.9732834222628
 31
0.0
  0
LINE
  5
94C0
330
93DF
100
AcDbEntity
  8
标注线
 48
5.0
370
    -2
100
AcDbLine
 10
1605.665897165463
 20
125.6917058315399
 30
0.0
 11
1605.665897165463
 21
135.1100842408167
 31
0.0
  0
MTEXT
  5
94C1
330
93DF
100
AcDbEntity
  8
标注线
 48
5.0
100
AcDbMText
 10
1605.665897165463
 20
136.04168383154
 30
0.0
 40
0.65
 41
0.0
 71
     5
 72
     1
  1
\A1;22"
 11
0.0000000000000001
 21
1.0
 31
0.0
 73
     1
 44
1.0
1001
ACAD
1000
MTEXTBEGIN
1070
    73
1070
     1
1070
    44
1040
1.0
1070
    74
1070
     0
1000
MTEXTEND
  0
SOLID
  5
94C2
330
93DF
100
AcDbEntity
  8
标注线
 48
5.0
100
AcDbTrace
 10
1605.55756383213
 20
146.3916618315396
 30
0.0
 11
1605.774230498797
 21
146.3916618315396
 31
0.0
 12
1605.665897165463
 22
147.0416618315396
 32
0.0
 13
1605.665897165463
 23
147.0416618315396
 33
0.0
  0
SOLID
  5
94C3
330
93DF
100
AcDbEntity
  8
标注线
 48
5.0
100
AcDbTrace
 10
1605.55756383213
 20
125.6917058315399
 30
0.0
 11
1605.774230498797
 21
125.6917058315399
 31
0.0
 12
1605.665897165463
 22
125.0417058315399
 32
0.0
 13
1605.665897165463
 23
125.0417058315399
 33
0.0
  0
POINT
  5
94C4
330
93DF
100
AcDbEntity
  8
DEFPOINTS
 62
     0
 48
5.0
100
AcDbPoint
 10
1602.17780891996
 20
147.0416618315396
 30
0.0
  0
POINT
  5
94C5
330
93DF
100
AcDbEntity
  8
DEFPOINTS
 62
     0
 48
5.0
100
AcDbPoint
 10
1602.232926919949
 20
125.0417058315399
 30
0.0
  0
POINT
  5
94C6
330
93DF
100
AcDbEntity
  8
DEFPOINTS
 62
     0
 48
5.0
100
AcDbPoint
 10
1605.665897165463
 20
125.0417058315399
 30
0.0
  0
ENDBLK
  5
93E1
330
93DF
100
AcDbEntity
  8
0
100
AcDbBlockEnd
  0
BLOCK
  5
93EE
330
93ED
100
AcDbEntity
  8
0
100
AcDbBlockBegin
  2
*D71
 70
     1
 10
0.0
 20
0.0
 30
0.0
  3
*D71
  1

  0
LINE
  5
949F
330
93ED
100
AcDbEntity
  8
标注线
 48
5.0
370
    -2
100
AcDbLine
 10
1577.92588891995
 20
124.3585558315329
 30
0.0
 11
1577.92588891995
 21
119.9668909847204
 31
0.0
  0
LINE
  5
94A0
330
93ED
100
AcDbEntity
  8
标注线
 48
5.0
370
    -2
100
AcDbLine
 10
1602.429776919957
 20
124.3585558315329
 30
0.0
 11
1602.429776919957
 21
119.9668909847204
 31
0.0
  0
LINE
  5
94A1
330
93ED
100
AcDbEntity
  8
标注线
 48
5.0
370
    -2
100
AcDbLine
 10
1578.57588891995
 20
120.2868909847204
 30
0.0
 11
1588.488934557062
 21
120.2868909847204
 31
0.0
  0
LINE
  5
94A2
330
93ED
100
AcDbEntity
  8
标注线
 48
5.0
370
    -2
100
AcDbLine
 10
1601.779776919957
 20
120.2868909847204
 30
0.0
 11
1591.866731282846
 21
120.2868909847204
 31
0.0
  0
SOLID
  5
94A3
330
93ED
100
AcDbEntity
  8
标注线
 48
5.0
100
AcDbTrace
 10
1578.57588891995
 20
120.3952243180538
 30
0.0
 11
1578.57588891995
 21
120.1785576513871
 31
0.0
 12
1577.92588891995
 22
120.2868909847204
 32
0.0
 13
1577.92588891995
 23
120.2868909847204
 33
0.0
  0
SOLID
  5
94A4
330
93ED
100
AcDbEntity
  8
标注线
 48
5.0
100
AcDbTrace
 10
1601.779776919957
 20
120.3952243180538
 30
0.0
 11
1601.779776919957
 21
120.1785576513871
 31
0.0
 12
1602.429776919957
 22
120.2868909847204
 32
0.0
 13
1602.429776919957
 23
120.2868909847204
 33
0.0
  0
MTEXT
  5
94A5
330
93ED
100
AcDbEntity
  8
标注线
 48
5.0
100
AcDbMText
 10
1590.177832919954
 20
120.2868909847204
 30
0.0
 40
0.65
 41
0.0
 71
     5
 72
     1
  1
\A1;24 1/2"
 73
     1
 44
1.0
1001
ACAD
1000
MTEXTBEGIN
1070
    73
1070
     1
1070
    44
1040
1.0
1070
    74
1070
     0
1000
MTEXTEND
  0
POINT
  5
94A6
330
93ED
100
AcDbEntity
  8
DEFPOINTS
 62
     0
 48
5.0
100
AcDbPoint
 10
1577.92588891995
 20
125.2385558315329
 30
0.0
  0
POINT
  5
94A7
330
93ED
100
AcDbEntity
  8
DEFPOINTS
 62
     0
 48
5.0
100
AcDbPoint
 10
1602.429776919957
 20
125.2385558315329
 30
0.0
  0
POINT
  5
94A8
330
93ED
100
AcDbEntity
  8
DEFPOINTS
 62
     0
 48
5.0
100
AcDbPoint
 10
1602.429776919957
 20
120.2868909847204
 30
0.0
  0
ENDBLK
  5
93EF
330
93ED
100
AcDbEntity
  8
0
100
AcDbBlockEnd
  0
BLOCK
  5
9407
330
9406
100
AcDbEntity
  8
0
100
AcDbBlockBegin
  2
*D72
 70
     1
 10
0.0
 20
0.0
 30
0.0
  3
*D72
  1

  0
LINE
  5
9497
330
9406
100
AcDbEntity
  8
标注线
 48
5.0
370
    -2
100
AcDbLine
 10
1587.19835892232
 20
138.0192488797853
 30
0.0
 11
1587.828853314087
 21
138.1772894503683
 31
0.0
  0
LINE
  5
9498
330
9406
100
AcDbEntity
  8
标注线
 48
5.0
370
    -2
100
AcDbLine
 10
1592.526812525894
 20
139.3548862126943
 30
0.0
 11
1593.157306917661
 21
139.5129267832772
 31
0.0
  0
MTEXT
  5
9499
102
{ACAD_XDICTIONARY
360
9557
102
}
330
9406
100
AcDbEntity
  8
标注线
 48
5.0
100
AcDbMText
 10
1585.467460266781
 20
137.5853794993203
 30
0.0
 40
0.65
 41
0.0
 71
     5
 72
     1
  1
\A1;\U+22053 1/2"
 11
0.969991371949426
 21
0.2431393393584636
 31
0.0
 73
     1
 44
1.0
1001
ACAD
1000
MTEXTBEGIN
1070
    73
1070
     1
1070
    44
1040
1.0
1070
    74
1070
     0
1000
MTEXTEND
  0
LINE
  5
949A
330
9406
100
AcDbEntity
  8
标注线
 48
5.0
370
    -2
100
AcDbLine
 10
1591.896318134127
 20
139.1968456421113
 30
0.0
 11
1588.459347705854
 21
138.3353300209513
 31
0.0
  0
SOLID
  5
949B
330
9406
100
AcDbEntity
  8
标注线
 48
5.0
100
AcDbTrace
 10
1592.500472430796
 20
139.4599686113221
 30
0.0
 11
1592.553152620991
 21
139.2498038140664
 31
0.0
 12
1591.896318134127
 22
139.1968456421113
 32
0.0
 13
1591.896318134127
 23
139.1968456421113
 33
0.0
  0
SOLID
  5
949C
330
9406
100
AcDbEntity
  8
标注线
 48
5.0
100
AcDbTrace
 10
1587.802513218989
 20
138.2823718489961
 30
0.0
 11
1587.855193409184
 21
138.0722070517404
 31
0.0
 12
1588.459347705854
 22
138.3353300209513
 32
0.0
 13
1588.459347705854
 23
138.3353300209513
 33
0.0
  0
POINT
  5
949D
330
9406
100
AcDbEntity
  8
DEFPOINTS
 62
     0
 48
5.0
100
AcDbPoint
 10
1588.459347705854
 20
138.3353300209513
 30
0.0
  0
POINT
  5
949E
330
9406
100
AcDbEntity
  8
DEFPOINTS
 62
     0
 48
5.0
100
AcDbPoint
 10
1591.896318134127
 20
139.1968456421113
 30
0.0
  0
ENDBLK
  5
9408
330
9406
100
AcDbEntity
  8
0
100
AcDbBlockEnd
  0
BLOCK
  5
9412
330
9411
100
AcDbEntity
  8
0
100
AcDbBlockBegin
  2
*D73
 70
     1
 10
0.0
 20
0.0
 30
0.0
  3
*D73
  1

  0
LINE
  5
948F
330
9411
100
AcDbEntity
  8
标注线
 48
5.0
370
    -2
100
AcDbLine
 10
1587.236712123783
 20
136.7188960882224
 30
0.0
 11
1587.770198898443
 21
137.0902340222714
 31
0.0
  0
LINE
  5
9490
330
9411
100
AcDbEntity
  8
标注线
 48
5.0
370
    -2
100
AcDbLine
 10
1592.585466941498
 20
140.4419416407825
 30
0.0
 11
1593.118953716157
 21
140.8132795748314
 31
0.0
  0
MTEXT
  5
9491
102
{ACAD_XDICTIONARY
360
9555
102
}
330
9411
100
AcDbEntity
  8
标注线
 48
5.0
100
AcDbMText
 10
1585.772128849034
 20
135.6994606432945
 30
0.0
 40
0.65
 41
0.0
 71
     5
 72
     1
  1
\A1;\U+22054 5/8"
 11
0.8207488840910269
 21
0.5712891293061107
 31
0.0
 73
     1
 44
1.0
1001
ACAD
1000
MTEXTBEGIN
1070
    73
1070
     1
1070
    44
1040
1.0
1070
    74
1070
     0
1000
MTEXTEND
  0
LINE
  5
9492
330
9411
100
AcDbEntity
  8
标注线
 48
5.0
370
    -2
100
AcDbLine
 10
1592.051980166839
 20
140.0706037067335
 30
0.0
 11
1588.303685673102
 21
137.4615719563203
 31
0.0
  0
SOLID
  5
9493
330
9411
100
AcDbEntity
  8
标注线
 48
5.0
100
AcDbTrace
 10
1592.523577285823
 20
140.5308561032257
 30
0.0
 11
1592.647356597173
 21
140.3530271783393
 31
0.0
 12
1592.051980166839
 22
140.0706037067335
 32
0.0
 13
1592.051980166839
 23
140.0706037067335
 33
0.0
  0
SOLID
  5
9494
330
9411
100
AcDbEntity
  8
标注线
 48
5.0
100
AcDbTrace
 10
1587.708309242768
 20
137.1791484847145
 30
0.0
 11
1587.832088554117
 21
137.0013195598281
 31
0.0
 12
1588.303685673102
 22
137.4615719563203
 32
0.0
 13
1588.303685673102
 23
137.4615719563203
 33
0.0
  0
POINT
  5
9495
330
9411
100
AcDbEntity
  8
DEFPOINTS
 62
     0
 48
5.0
100
AcDbPoint
 10
1588.303685673102
 20
137.4615719563203
 30
0.0
  0
POINT
  5
9496
330
9411
100
AcDbEntity
  8
DEFPOINTS
 62
     0
 48
5.0
100
AcDbPoint
 10
1592.051980166839
 20
140.0706037067335
 30
0.0
  0
ENDBLK
  5
9413
330
9411
100
AcDbEntity
  8
0
100
AcDbBlockEnd
  0
BLOCK
  5
9428
330
9427
100
AcDbEntity
  8
0
100
AcDbBlockBegin
  2
*D74
 70
     1
 10
0.0
 20
0.0
 30
0.0
  3
*D74
  1

  0
LINE
  5
9485
330
9427
100
AcDbEntity
  8
标注线
 48
5.0
370
    -2
100
AcDbLine
 10
1579.303838919974
 20
125.8073718315366
 30
0.0
 11
1579.303838919974
 21
122.0181521270824
 31
0.0
  0
LINE
  5
9486
330
9427
100
AcDbEntity
  8
标注线
 48
5.0
370
    -2
100
AcDbLine
 10
1601.051826919962
 20
125.8073718315366
 30
0.0
 11
1601.051826919962
 21
122.0181521270824
 31
0.0
  0
LINE
  5
9487
330
9427
100
AcDbEntity
  8
标注线
 48
5.0
370
    -2
100
AcDbLine
 10
1579.953838919974
 20
122.3381521270823
 30
0.0
 11
1588.488934557076
 21
122.3381521270823
 31
0.0
  0
LINE
  5
9488
330
9427
100
AcDbEntity
  8
标注线
 48
5.0
370
    -2
100
AcDbLine
 10
1600.401826919962
 20
122.3381521270823
 30
0.0
 11
1591.86673128286
 21
122.3381521270823
 31
0.0
  0
SOLID
  5
9489
330
9427
100
AcDbEntity
  8
标注线
 48
5.0
100
AcDbTrace
 10
1579.953838919974
 20
122.4464854604157
 30
0.0
 11
1579.953838919974
 21
122.229818793749
 31
0.0
 12
1579.303838919974
 22
122.3381521270823
 32
0.0
 13
1579.303838919974
 23
122.3381521270823
 33
0.0
  0
SOLID
  5
948A
330
9427
100
AcDbEntity
  8
标注线
 48
5.0
100
AcDbTrace
 10
1600.401826919962
 20
122.4464854604157
 30
0.0
 11
1600.401826919962
 21
122.229818793749
 31
0.0
 12
1601.051826919962
 22
122.3381521270823
 32
0.0
 13
1601.051826919962
 23
122.3381521270823
 33
0.0
  0
MTEXT
  5
948B
330
9427
100
AcDbEntity
  8
标注线
 48
5.0
100
AcDbMText
 10
1590.177832919968
 20
122.3381521270823
 30
0.0
 40
0.65
 41
0.0
 71
     5
 72
     1
  1
\A1;21 3/4"
 73
     1
 44
1.0
1001
ACAD
1000
MTEXTBEGIN
1070
    73
1070
     1
1070
    44
1040
1.0
1070
    74
1070
     0
1000
MTEXTEND
  0
POINT
  5
948C
330
9427
100
AcDbEntity
  8
DEFPOINTS
 62
     0
 48
5.0
100
AcDbPoint
 10
1579.303838919974
 20
126.6873718315366
 30
0.0
  0
POINT
  5
948D
330
9427
100
AcDbEntity
  8
DEFPOINTS
 62
     0
 48
5.0
100
AcDbPoint
 10
1601.051826919962
 20
126.6873718315366
 30
0.0
  0
POINT
  5
948E
330
9427
100
AcDbEntity
  8
DEFPOINTS
 62
     0
 48
5.0
100
AcDbPoint
 10
1601.051826919962
 20
122.3381521270823
 30
0.0
  0
ENDBLK
  5
9429
330
9427
100
AcDbEntity
  8
0
100
AcDbBlockEnd
  0
BLOCK
  5
9436
330
9435
100
AcDbEntity
  8
0
100
AcDbBlockBegin
  2
*D75
 70
     1
 10
0.0
 20
0.0
 30
0.0
  3
*D75
  1

  0
LINE
  5
94C7
330
9435
100
AcDbEntity
  8
标注线
 48
5.0
370
    -2
100
AcDbLine
 10
1602.550417633587
 20
143.2936378315391
 30
0.0
 11
1604.415474993302
 21
143.2936378315391
 31
0.0
  0
LINE
  5
94C8
330
9435
100
AcDbEntity
  8
标注线
 48
5.0
370
    -2
100
AcDbLine
 10
1601.931826919962
 20
126.2936718315361
 30
0.0
 11
1604.415474993302
 21
126.2936718315361
 31
0.0
  0
LINE
  5
94C9
330
9435
100
AcDbEntity
  8
标注线
 48
5.0
370
    -2
100
AcDbLine
 10
1604.095474993302
 20
142.6436378315391
 30
0.0
 11
1604.095474993302
 21
135.6891186787409
 31
0.0
  0
LINE
  5
94CA
330
9435
100
AcDbEntity
  8
标注线
 48
5.0
370
    -2
100
AcDbLine
 10
1604.095474993302
 20
126.9436718315361
 30
0.0
 11
1604.095474993302
 21
133.8981909843343
 31
0.0
  0
MTEXT
  5
94CB
330
9435
100
AcDbEntity
  8
标注线
 48
5.0
100
AcDbMText
 10
1604.095474993302
 20
134.7936548315379
 30
0.0
 40
0.65
 41
0.0
 71
     5
 72
     1
  1
\A1;17"
 11
0.0000000000000001
 21
1.0
 31
0.0
 73
     1
 44
1.0
1001
ACAD
1000
MTEXTBEGIN
1070
    73
1070
     1
1070
    44
1040
1.0
1070
    74
1070
     0
1000
MTEXTEND
  0
SOLID
  5
94CC
330
9435
100
AcDbEntity
  8
标注线
 48
5.0
100
AcDbTrace
 10
1603.987141659969
 20
142.6436378315391
 30
0.0
 11
1604.203808326635
 21
142.6436378315391
 31
0.0
 12
1604.095474993302
 22
143.2936378315391
 32
0.0
 13
1604.095474993302
 23
143.2936378315391
 33
0.0
  0
SOLID
  5
94CD
330
9435
100
AcDbEntity
  8
标注线
 48
5.0
100
AcDbTrace
 10
1603.987141659969
 20
126.9436718315361
 30
0.0
 11
1604.203808326635
 21
126.9436718315361
 31
0.0
 12
1604.095474993302
 22
126.2936718315361
 32
0.0
 13
1604.095474993302
 23
126.2936718315361
 33
0.0
  0
POINT
  5
94CE
330
9435
100
AcDbEntity
  8
DEFPOINTS
 62
     0
 48
5.0
100
AcDbPoint
 10
1601.670417633586
 20
143.2936378315391
 30
0.0
  0
POINT
  5
94CF
330
9435
100
AcDbEntity
  8
DEFPOINTS
 62
     0
 48
5.0
100
AcDbPoint
 10
1601.051826919962
 20
126.2936718315361
 30
0.0
  0
POINT
  5
94D0
330
9435
100
AcDbEntity
  8
DEFPOINTS
 62
     0
 48
5.0
100
AcDbPoint
 10
1604.095474993302
 20
126.2936718315361
 30
0.0
  0
ENDBLK
  5
9437
330
9435
100
AcDbEntity
  8
0
100
AcDbBlockEnd
  0
BLOCK
  5
944F
330
944E
100
AcDbEntity
  8
0
100
AcDbBlockBegin
  2
*D76
 70
     1
 10
0.0
 20
0.0
 30
0.0
  3
*D76
  1

  0
LINE
  5
951B
330
944E
100
AcDbEntity
  8
标注线
 48
5.0
370
    -2
100
AcDbLine
 10
1602.036076919971
 20
85.19861031290963
 30
0.0
 11
1602.036076919971
 21
83.22896296900712
 31
0.0
  0
LINE
  5
951C
330
944E
100
AcDbEntity
  8
标注线
 48
5.0
370
    -2
100
AcDbLine
 10
1578.319588919965
 20
85.19861031290963
 30
0.0
 11
1578.319588919965
 21
83.22896296900712
 31
0.0
  0
LINE
  5
951D
330
944E
100
AcDbEntity
  8
标注线
 48
5.0
370
    -2
100
AcDbLine
 10
1601.386076919971
 20
83.5489629690071
 30
0.0
 11
1591.86673128286
 21
83.5489629690071
 31
0.0
  0
LINE
  5
951E
330
944E
100
AcDbEntity
  8
标注线
 48
5.0
370
    -2
100
AcDbLine
 10
1578.969588919965
 20
83.5489629690071
 30
0.0
 11
1588.488934557076
 21
83.5489629690071
 31
0.0
  0
SOLID
  5
951F
330
944E
100
AcDbEntity
  8
标注线
 48
5.0
100
AcDbTrace
 10
1601.386076919971
 20
83.65729630234044
 30
0.0
 11
1601.386076919971
 21
83.44062963567377
 31
0.0
 12
1602.036076919971
 22
83.5489629690071
 32
0.0
 13
1602.036076919971
 23
83.5489629690071
 33
0.0
  0
SOLID
  5
9520
330
944E
100
AcDbEntity
  8
标注线
 48
5.0
100
AcDbTrace
 10
1578.969588919965
 20
83.65729630234044
 30
0.0
 11
1578.969588919965
 21
83.44062963567377
 31
0.0
 12
1578.319588919965
 22
83.5489629690071
 32
0.0
 13
1578.319588919965
 23
83.5489629690071
 33
0.0
  0
MTEXT
  5
9521
330
944E
100
AcDbEntity
  8
标注线
 48
5.0
100
AcDbMText
 10
1590.177832919968
 20
83.5489629690071
 30
0.0
 40
0.65
 41
0.0
 71
     5
 72
     1
  1
\A1;23 3/4"
 73
     1
 44
1.0
1001
ACAD
1000
MTEXTBEGIN
1070
    73
1070
     1
1070
    44
1040
1.0
1070
    74
1070
     0
1000
MTEXTEND
  0
POINT
  5
9522
330
944E
100
AcDbEntity
  8
DEFPOINTS
 62
     0
 48
5.0
100
AcDbPoint
 10
1602.036076919971
 20
86.07861031290964
 30
0.0
  0
POINT
  5
9523
330
944E
100
AcDbEntity
  8
DEFPOINTS
 62
     0
 48
5.0
100
AcDbPoint
 10
1578.319588919965
 20
86.07861031290964
 30
0.0
  0
POINT
  5
9524
330
944E
100
AcDbEntity
  8
DEFPOINTS
 62
     0
 48
5.0
100
AcDbPoint
 10
1578.319588919965
 20
83.5489629690071
 30
0.0
  0
ENDBLK
  5
9450
330
944E
100
AcDbEntity
  8
0
100
AcDbBlockEnd
  0
BLOCK
  5
945D
330
945C
100
AcDbEntity
  8
0
100
AcDbBlockBegin
  2
*D77
 70
     1
 10
0.0
 20
0.0
 30
0.0
  3
*D77
  1

  0
LINE
  5
9525
330
945C
100
AcDbEntity
  8
标注线
 48
5.0
370
    -2
100
AcDbLine
 10
1602.916076919971
 20
107.2911663129082
 30
0.0
 11
1604.628065398955
 21
107.2911663129082
 31
0.0
  0
LINE
  5
9526
330
945C
100
AcDbEntity
  8
标注线
 48
5.0
370
    -2
100
AcDbLine
 10
1602.916076919971
 20
86.07861031290964
 30
0.0
 11
1604.628065398955
 21
86.07861031290964
 31
0.0
  0
LINE
  5
9527
330
945C
100
AcDbEntity
  8
标注线
 48
5.0
370
    -2
100
AcDbLine
 10
1604.308065398955
 20
106.6411663129082
 30
0.0
 11
1604.308065398955
 21
98.37378667580114
 31
0.0
  0
LINE
  5
9528
330
945C
100
AcDbEntity
  8
标注线
 48
5.0
370
    -2
100
AcDbLine
 10
1604.308065398955
 20
86.72861031290963
 30
0.0
 11
1604.308065398955
 21
94.99598995001671
 31
0.0
  0
SOLID
  5
9529
330
945C
100
AcDbEntity
  8
标注线
 48
5.0
100
AcDbTrace
 10
1604.199732065622
 20
106.6411663129082
 30
0.0
 11
1604.416398732288
 21
106.6411663129082
 31
0.0
 12
1604.308065398955
 22
107.2911663129082
 32
0.0
 13
1604.308065398955
 23
107.2911663129082
 33
0.0
  0
SOLID
  5
952A
330
945C
100
AcDbEntity
  8
标注线
 48
5.0
100
AcDbTrace
 10
1604.199732065622
 20
86.72861031290963
 30
0.0
 11
1604.416398732288
 21
86.72861031290963
 31
0.0
 12
1604.308065398955
 22
86.07861031290964
 32
0.0
 13
1604.308065398955
 23
86.07861031290964
 33
0.0
  0
MTEXT
  5
952B
330
945C
100
AcDbEntity
  8
标注线
 48
5.0
100
AcDbMText
 10
1604.308065398955
 20
96.68488831290918
 30
0.0
 40
0.65
 41
0.0
 71
     5
 72
     1
  1
\A1;21 1/4"
 11
0.0000000000000001
 21
1.0
 31
0.0
 73
     1
 44
1.0
1001
ACAD
1000
MTEXTBEGIN
1070
    73
1070
     1
1070
    44
1040
1.0
1070
    74
1070
     0
1000
MTEXTEND
  0
POINT
  5
952C
330
945C
100
AcDbEntity
  8
DEFPOINTS
 62
     0
 48
5.0
100
AcDbPoint
 10
1602.036076919971
 20
107.2911663129082
 30
0.0
  0
POINT
  5
952D
330
945C
100
AcDbEntity
  8
DEFPOINTS
 62
     0
 48
5.0
100
AcDbPoint
 10
1602.036076919971
 20
86.07861031290964
 30
0.0
  0
POINT
  5
952E
330
945C
100
AcDbEntity
  8
DEFPOINTS
 62
     0
 48
5.0
100
AcDbPoint
 10
1604.308065398955
 20
86.07861031290964
 30
0.0
  0
ENDBLK
  5
945E
330
945C
100
AcDbEntity
  8
0
100
AcDbBlockEnd
  0
BLOCK
  5
94E6
330
94E5
100
AcDbEntity
  8
0
100
AcDbBlockBegin
  2
*D78
 70
     1
 10
0.0
 20
0.0
 30
0.0
  3
*D78
  1

  0
LINE
  5
94E8
330
94E5
100
AcDbEntity
  8
标注线
  6
Continuous
370
    -2
100
AcDbLine
 10
1579.005853935222
 20
125.9057826991355
 30
0.0
 11
1578.575083368891
 21
125.4190212388878
 31
0.0
  0
MTEXT
  5
94E9
330
94E5
100
AcDbEntity
  8
标注线
100
AcDbMText
 10
1580.330427986084
 20
128.0064216499181
 30
0.0
 40
0.65
 41
0.0
 71
     5
 72
     1
  1
\A1;R3/8"
 11
0.6627239482019781
 21
0.7488637849966988
 31
0.0
 73
     1
 44
1.0
1001
ACAD
1000
MTEXTBEGIN
1070
    73
1070
     1
1070
    44
1040
1.0
1070
    74
1070
     0
1000
MTEXTEND
  0
LINE
  5
94EA
330
94E5
100
AcDbEntity
  8
标注线
  6
Continuous
370
    -2
100
AcDbLine
 10
1579.69753891996
 20
126.6873718315371
 30
0.0
 11
1579.436624501553
 21
126.3925441593835
 31
0.0
  0
SOLID
  5
94EB
330
94E5
100
AcDbEntity
  8
标注线
100
AcDbTrace
 10
1578.924727025181
 20
125.9775777935241
 30
0.0
 11
1579.086980845263
 21
125.833987604747
 31
0.0
 12
1579.436624501553
 22
126.3925441593835
 32
0.0
 13
1579.436624501553
 23
126.3925441593835
 33
0.0
  0
POINT
  5
94EC
330
94E5
100
AcDbEntity
  8
DEFPOINTS
 62
     0
100
AcDbPoint
 10
1579.436624501553
 20
126.3925441593835
 30
0.0
  0
POINT
  5
94ED
330
94E5
100
AcDbEntity
  8
DEFPOINTS
 62
     0
100
AcDbPoint
 10
1579.69753891996
 20
126.6873718315371
 30
0.0
  0
ENDBLK
  5
94E7
330
94E5
100
AcDbEntity
  8
0
100
AcDbBlockEnd
  0
BLOCK
  5
94F0
330
94EF
100
AcDbEntity
  8
0
100
AcDbBlockBegin
  2
*D79
 70
     1
 10
0.0
 20
0.0
 30
0.0
  3
*D79
  1

  0
LINE
  5
94F2
330
94EF
100
AcDbEntity
  8
标注线
  6
Continuous
370
    -2
100
AcDbLine
 10
1579.047755092332
 20
157.113933921051
 30
0.0
 11
1578.643079909849
 21
156.6052709710715
 31
0.0
  0
MTEXT
  5
94F3
330
94EF
100
AcDbEntity
  8
标注线
100
AcDbMText
 10
1580.267032241176
 20
159.0434717204741
 30
0.0
 40
0.65
 41
0.0
 71
     5
 72
     1
  1
\A1;R3/8"
 11
0.6225772038205215
 21
0.7825583845841925
 31
0.0
 73
     1
 44
1.0
1001
ACAD
1000
MTEXTBEGIN
1070
    73
1070
     1
1070
    44
1040
1.0
1070
    74
1070
     0
1000
MTEXTEND
  0
LINE
  5
94F4
330
94EF
100
AcDbEntity
  8
标注线
  6
Continuous
370
    -2
100
AcDbLine
 10
1579.697538919959
 20
157.9306901070412
 30
0.0
 11
1579.452430274816
 21
157.6225968710308
 31
0.0
  0
SOLID
  5
94F5
330
94EF
100
AcDbEntity
  8
标注线
100
AcDbTrace
 10
1578.962977934002
 20
157.1813797847982
 30
0.0
 11
1579.132532250662
 21
157.0464880573038
 31
0.0
 12
1579.452430274816
 22
157.6225968710308
 32
0.0
 13
1579.452430274816
 23
157.6225968710308
 33
0.0
  0
POINT
  5
94F6
330
94EF
100
AcDbEntity
  8
DEFPOINTS
 62
     0
100
AcDbPoint
 10
1579.452430274816
 20
157.6225968710308
 30
0.0
  0
POINT
  5
94F7
330
94EF
100
AcDbEntity
  8
DEFPOINTS
 62
     0
100
AcDbPoint
 10
1579.697538919959
 20
157.9306901070412
 30
0.0
  0
ENDBLK
  5
94F1
330
94EF
100
AcDbEntity
  8
0
100
AcDbBlockEnd
  0
ENDSEC
  0
SECTION
  2
ENTITIES
  0
LINE
  5
9343
330
5F6E
100
AcDbEntity
  8
0
100
AcDbLine
 10
1578.122738919958
 20
147.0416618315396
 30
0.0
 11
1602.232926919949
 21
147.0416618315396
 31
0.0
  0
ARC
  5
9344
330
5F6E
100
AcDbEntity
  8
0
100
AcDbCircle
 10
1602.232926919949
 20
146.844811831532
 30
0.0
 40
0.19685
100
AcDbArc
 50
0.0
 51
90.0
  0
ARC
  5
9345
330
5F6E
100
AcDbEntity
  8
0
100
AcDbCircle
 10
1578.122738919958
 20
146.844811831532
 30
0.0
 40
0.19685
100
AcDbArc
 50
90.0
 51
180.0
  0
CIRCLE
  5
9346
330
5F6E
100
AcDbEntity
  8
0
100
AcDbCircle
 10
1590.177832919968
 20
144.7896978315295
 30
0.0
 40
0.6889750000000001
  0
LINE
  5
9347
330
5F6E
100
AcDbEntity
  8
中心线
 48
1.5
100
AcDbLine
 10
1588.593087891825
 20
144.7896978315295
 30
0.0
 11
1591.893655489994
 21
144.7896978315295
 31
0.0
  0
LINE
  5
9348
330
5F6E
100
AcDbEntity
  8
虚线
 48
0.2
100
AcDbLine
 10
1578.956890794953
 20
146.5692218315273
 30
0.0
 11
1601.398775044955
 21
146.5692218315273
 31
0.0
  0
LINE
  5
9349
330
5F6E
100
AcDbEntity
  8
虚线
 48
0.2
100
AcDbLine
 10
1578.39783679497
 20
126.2976088315374
 30
0.0
 11
1578.39783679497
 21
145.7857588315421
 31
0.0
  0
LINE
  5
934A
330
5F6E
100
AcDbEntity
  8
虚线
 48
0.2
100
AcDbLine
 10
1578.956890794953
 20
125.5141458315377
 30
0.0
 11
1601.398775044955
 21
125.5141458315377
 31
0.0
  0
LINE
  5
934B
330
5F6E
100
AcDbEntity
  8
虚线
 48
0.2
100
AcDbLine
 10
1578.956890794953
 20
125.9865858315354
 30
0.0
 11
1601.398775044955
 21
125.9865858315354
 31
0.0
  0
LINE
  5
934C
330
5F6E
100
AcDbEntity
  8
虚线
 48
0.2
100
AcDbLine
 10
1578.870276794953
 20
126.2976088315374
 30
0.0
 11
1578.870276794953
 21
145.7857588315421
 31
0.0
  0
LINE
  5
934D
330
5F6E
100
AcDbEntity
  8
虚线
 48
0.2
100
AcDbLine
 10
1578.956890794953
 20
146.0967818315296
 30
0.0
 11
1601.398775044955
 21
146.0967818315296
 31
0.0
  0
LINE
  5
934E
330
5F6E
100
AcDbEntity
  8
虚线
 48
3.5
100
AcDbLine
 10
1578.956890794953
 20
125.5141458315377
 30
0.0
 11
1578.956890794953
 21
125.9865858315354
 31
0.0
  0
LINE
  5
934F
330
5F6E
100
AcDbEntity
  8
虚线
 48
3.5
100
AcDbLine
 10
1578.39783679497
 20
126.2976088315374
 30
0.0
 11
1578.870276794953
 21
126.2976088315374
 31
0.0
  0
LINE
  5
9350
330
5F6E
100
AcDbEntity
  8
0
100
AcDbLine
 10
1578.122738919958
 20
125.0417058315399
 30
0.0
 11
1602.232926919949
 21
125.0417058315399
 31
0.0
  0
LINE
  5
9351
330
5F6E
100
AcDbEntity
  8
0
100
AcDbLine
 10
1577.92588891995
 20
146.844811831532
 30
0.0
 11
1577.92588891995
 21
125.2385558315329
 31
0.0
  0
ARC
  5
9352
330
5F6E
100
AcDbEntity
  8
0
100
AcDbCircle
 10
1578.122738919958
 20
125.2385558315329
 30
0.0
 40
0.19685
100
AcDbArc
 50
180.0
 51
270.0
  0
LINE
  5
9353
330
5F6E
100
AcDbEntity
  8
虚线
 48
0.2
100
AcDbLine
 10
1601.957829044967
 20
126.2976088315374
 30
0.0
 11
1601.957829044967
 21
145.7857588315276
 31
0.0
  0
LINE
  5
9354
330
5F6E
100
AcDbEntity
  8
虚线
 48
0.2
100
AcDbLine
 10
1601.485389044954
 20
126.2976088315374
 30
0.0
 11
1601.485389044954
 21
145.7857588315421
 31
0.0
  0
LINE
  5
9355
330
5F6E
100
AcDbEntity
  8
虚线
 48
0.2
100
AcDbLine
 10
1601.398775044955
 20
125.5141458315377
 30
0.0
 11
1601.398775044955
 21
125.9865858315354
 31
0.0
  0
LINE
  5
9356
330
5F6E
100
AcDbEntity
  8
虚线
 48
0.2
100
AcDbLine
 10
1601.957829044967
 20
126.2976088315374
 30
0.0
 11
1601.485389044954
 21
126.2976088315374
 31
0.0
  0
LINE
  5
9357
330
5F6E
100
AcDbEntity
  8
虚线
 48
0.2
100
AcDbLine
 10
1578.956890794953
 20
146.5692218315273
 30
0.0
 11
1578.956890794953
 21
146.0967818315296
 31
0.0
  0
LINE
  5
9358
330
5F6E
100
AcDbEntity
  8
虚线
 48
0.2
100
AcDbLine
 10
1578.39783679497
 20
145.7857588315421
 30
0.0
 11
1578.870276794953
 21
145.7857588315421
 31
0.0
  0
LINE
  5
9359
330
5F6E
100
AcDbEntity
  8
虚线
 48
3.5
100
AcDbLine
 10
1601.398775044955
 20
146.5692218315273
 30
0.0
 11
1601.398775044955
 21
146.0967818315296
 31
0.0
  0
LINE
  5
935A
330
5F6E
100
AcDbEntity
  8
虚线
 48
3.5
100
AcDbLine
 10
1601.957829044967
 20
145.7857588315276
 30
0.0
 11
1601.485389044954
 21
145.7857588315421
 31
0.0
  0
LINE
  5
935B
102
{ACAD_REACTORS
330
935F
102
}
330
5F6E
100
AcDbEntity
  8
0
100
AcDbLine
 10
1602.429776919957
 20
146.844811831532
 30
0.0
 11
1602.429776919957
 21
125.2385558315329
 31
0.0
  0
ARC
  5
935C
330
5F6E
100
AcDbEntity
  8
0
100
AcDbCircle
 10
1602.232926919949
 20
125.2385558315329
 30
0.0
 40
0.19685
100
AcDbArc
 50
270.0
 51
0.0
  0
DIMENSION
  5
935D
102
{ACAD_XDICTIONARY
360
935E
102
}
102
{ACAD_REACTORS
330
935F
102
}
330
5F6E
100
AcDbEntity
  8
标注线
 48
5.0
100
AcDbDimension
  2
*D71
 10
1602.429776919957
 20
120.2868909847204
 30
0.0
 11
1590.177832919954
 21
120.2868909847204
 31
0.0
 70
    32
 71
     5
 42
24.50388800000656
  3
副本Standard$0
100
AcDbAlignedDimension
 13
1577.92588891995
 23
125.2385558315329
 33
0.0
 14
1602.429776919957
 24
125.2385558315329
 34
0.0
100
AcDbRotatedDimension
1001
ACAD
1000
DSTYLE
1002
{
1070
     3
1000
"
1070
    41
1040
0.65
1070
    42
1040
0.88
1070
    43
1040
0.015
1070
    44
1040
0.32
1070
    79
1070
     0
1070
   140
1040
0.65
1070
   147
1040
0.3
1070
   171
1070
     1
1070
   179
1070
     0
1070
   271
1070
     3
1070
   272
1070
     3
1070
   273
1070
     2
1070
   274
1070
     1
1070
   276
1070
     2
1070
   277
1070
     5
1070
   278
1070
    46
1070
   279
1070
     2
1070
   284
1070
     8
1070
   285
1070
     8
1070
   286
1070
     8
1002
}
  0
LINE
  5
9361
102
{ACAD_REACTORS
330
93AD
102
}
330
5F6E
100
AcDbEntity
  8
0
100
AcDbLine
 10
1579.69753891996
 20
143.2936378315246
 30
0.0
 11
1600.658126919947
 21
143.2936378315391
 31
0.0
  0
ARC
  5
9362
330
5F6E
100
AcDbEntity
  8
0
100
AcDbCircle
 10
1579.69753891996
 20
142.8999378315386
 30
0.0
 40
0.3937
100
AcDbArc
 50
90.0
 51
180.0
  0
LINE
  5
9363
330
5F6E
100
AcDbEntity
  8
0
100
AcDbLine
 10
1600.658126919947
 20
126.2936718315361
 30
0.0
 11
1579.69753891996
 21
126.2936718315361
 31
0.0
  0
ARC
  5
9364
330
5F6E
100
AcDbEntity
  8
0
100
AcDbCircle
 10
1579.69753891996
 20
126.6873718315366
 30
0.0
 40
0.3937
100
AcDbArc
 50
180.0
 51
270.0
  0
LINE
  5
9365
330
5F6E
100
AcDbEntity
  8
0
100
AcDbLine
 10
1579.69753891996
 20
142.8999378315386
 30
0.0
 11
1588.069797951854
 21
139.6437997118084
 31
0.0
  0
LINE
  5
9366
102
{ACAD_REACTORS
330
93AA
102
}
330
5F6E
100
AcDbEntity
  8
0
100
AcDbLine
 10
1579.303838919945
 20
142.8999378315386
 30
0.0
 11
1579.303838919974
 21
126.6873718315366
 31
0.0
  0
LINE
  5
9367
330
5F6E
100
AcDbEntity
  8
0
100
AcDbLine
 10
1579.69753891996
 20
126.6873718315366
 30
0.0
 11
1588.677243485358
 21
137.0449193562274
 31
0.0
  0
LINE
  5
9368
330
5F6E
100
AcDbEntity
  8
0
100
AcDbLine
 10
1601.051826919962
 20
142.8999378315386
 30
0.0
 11
1601.051826919962
 21
126.6873718315366
 31
0.0
  0
ARC
  5
9369
330
5F6E
100
AcDbEntity
  8
0
100
AcDbCircle
 10
1600.658126919947
 20
126.6873718315366
 30
0.0
 40
0.3937
100
AcDbArc
 50
270.0
 51
0.0
  0
ARC
  5
936A
330
5F6E
100
AcDbEntity
  8
0
100
AcDbCircle
 10
1600.658126919947
 20
142.8999378315386
 30
0.0
 40
0.3937
100
AcDbArc
 50
0.0
 51
90.0
  0
CIRCLE
  5
936B
330
5F6E
100
AcDbEntity
  8
细实线
100
AcDbCircle
 10
1590.177832919968
 20
138.7660878315257
 30
0.0
 40
2.16535
  0
CIRCLE
  5
936C
102
{ACAD_REACTORS
330
9371
102
}
330
5F6E
100
AcDbEntity
  8
0
100
AcDbCircle
 10
1590.177832919968
 20
138.7660878315257
 30
0.0
 40
1.77165
  0
LINE
  5
936D
330
5F6E
100
AcDbEntity
  8
中心线
 48
2.5
100
AcDbLine
 10
1592.942135174594
 20
138.7660878315257
 30
0.0
 11
1587.255570555668
 21
138.7660878315257
 31
0.0
  0
CIRCLE
  5
936E
102
{ACAD_REACTORS
330
9374
102
}
330
5F6E
100
AcDbEntity
  8
0
100
AcDbCircle
 10
1590.177832919968
 20
138.7660878315257
 30
0.0
 40
2.28346
  0
DIMENSION
  5
936F
102
{ACAD_XDICTIONARY
360
9370
102
}
102
{ACAD_REACTORS
330
9371
102
}
330
5F6E
100
AcDbEntity
  8
标注线
 48
5.0
100
AcDbDimension
  2
*D72
 10
1591.896318134127
 20
139.1968456421113
 30
0.0
 11
1585.467460266781
 21
137.5853794993203
 31
0.0
 70
    35
 71
     5
 42
3.543300000045746
  3
副本STANDARD
100
AcDbDiametricDimension
 15
1588.459347705854
 25
138.3353300209513
 35
0.0
 40
0.0
  0
DIMENSION
  5
9372
102
{ACAD_XDICTIONARY
360
9373
102
}
102
{ACAD_REACTORS
330
9374
102
}
330
5F6E
100
AcDbEntity
  8
标注线
 48
5.0
100
AcDbDimension
  2
*D73
 10
1592.051980166839
 20
140.0706037067335
 30
0.0
 11
1585.772128849034
 21
135.6994606432945
 31
0.0
 70
    35
 71
     5
 42
4.566920000004529
  3
副本STANDARD
100
AcDbDiametricDimension
 15
1588.303685673102
 25
137.4615719563203
 35
0.0
 40
0.0
  0
LINE
  5
9375
330
5F6E
100
AcDbEntity
  8
中心线
 48
2.5
100
AcDbLine
 10
1590.177832919968
 20
147.2530791673964
 30
0.0
 11
1590.177832919968
 21
124.8138047410214
 31
0.0
  0
LINE
  5
9376
102
{ACAD_REACTORS
330
93AD
102
}
330
5F6E
100
AcDbEntity
  8
0
100
AcDbLine
 10
1600.658126919947
 20
142.8999378315386
 30
0.0
 11
1592.285867888082
 21
139.6437997118084
 31
0.0
  0
LINE
  5
9377
330
5F6E
100
AcDbEntity
  8
0
100
AcDbLine
 10
1600.658126919947
 20
126.6873718315366
 30
0.0
 11
1591.678422354549
 21
137.0449193562274
 31
0.0
  0
LINE
  5
9378
330
5F6E
100
AcDbEntity
  8
0
100
AcDbLine
 10
1601.169936919973
 20
166.4653555969018
 30
0.0
 11
1579.185728919964
 21
166.4653555969018
 31
0.0
  0
LINE
  5
9379
330
5F6E
100
AcDbEntity
  8
中心线
 48
2.5
100
AcDbLine
 10
1590.177833180913
 20
158.6668133706326
 30
0.0
 11
1590.177833180913
 21
156.1064538231597
 31
0.0
  0
LINE
  5
937A
330
5F6E
100
AcDbEntity
  8
0
100
AcDbLine
 10
1577.92588891995
 20
166.4653555969018
 30
0.0
 11
1579.185728919964
 21
166.4653555969018
 31
0.0
  0
LINE
  5
937B
330
5F6E
100
AcDbEntity
  8
虚线
 48
0.2
100
AcDbLine
 10
1579.303838919945
 20
166.3472455969061
 30
0.0
 11
1579.303838919945
 21
157.9306901070415
 31
0.0
  0
LINE
  5
937C
330
5F6E
100
AcDbEntity
  8
0
100
AcDbLine
 10
1577.92588891995
 20
166.4063005968967
 30
0.0
 11
1579.185728919964
 21
166.4063005968967
 31
0.0
  0
LINE
  5
937D
330
5F6E
100
AcDbEntity
  8
0
100
AcDbLine
 10
1579.244783919954
 20
166.3472455969061
 30
0.0
 11
1579.244783919954
 21
157.9297485534518
 31
0.0
  0
LINE
  5
937E
330
5F6E
100
AcDbEntity
  8
0
100
AcDbLine
 10
1577.92588891995
 20
166.4653555969018
 30
0.0
 11
1577.92588891995
 21
166.4063005968967
 31
0.0
  0
ARC
  5
937F
330
5F6E
100
AcDbEntity
  8
虚线
 48
0.2
100
AcDbCircle
 10
1579.185728919964
 20
166.3472455969061
 30
0.0
 40
0.11811
100
AcDbArc
 50
0.0
 51
90.0
  0
ARC
  5
9380
330
5F6E
100
AcDbEntity
  8
0
100
AcDbCircle
 10
1579.185728919964
 20
166.3472455969061
 30
0.0
 40
0.059055
100
AcDbArc
 50
0.0
 51
90.0
  0
DIMENSION
  5
9381
330
5F6E
100
AcDbEntity
  8
标注线
 48
5.0
100
AcDbDimension
  2
*D69
 10
1603.559558139367
 20
157.4648828315587
 30
0.0
 11
1603.559558139367
 21
161.9651192142305
 31
0.0
 70
   160
 71
     5
 42
9.000472765343147
  3
副本Standard$0
100
AcDbAlignedDimension
 13
1602.429776919957
 23
166.4653555969018
 33
0.0
 14
1601.196568035763
 24
157.4648828315587
 34
0.0
 50
90.0
100
AcDbRotatedDimension
1001
ACAD
1000
DSTYLE
1002
{
1070
     3
1000
"
1070
    41
1040
0.65
1070
    42
1040
0.88
1070
    43
1040
0.015
1070
    44
1040
0.32
1070
    79
1070
     0
1070
   140
1040
0.65
1070
   147
1040
0.3
1070
   171
1070
     1
1070
   179
1070
     0
1070
   271
1070
     3
1070
   272
1070
     3
1070
   273
1070
     2
1070
   274
1070
     1
1070
   276
1070
     2
1070
   277
1070
     5
1070
   278
1070
    46
1070
   279
1070
     2
1070
   284
1070
     8
1070
   285
1070
     8
1070
   286
1070
     8
1002
}
  0
LINE
  5
9382
330
5F6E
100
AcDbEntity
  8
0
100
AcDbLine
 10
1602.429776919957
 20
166.4653555969018
 30
0.0
 11
1601.169936919973
 21
166.4653555969018
 31
0.0
  0
LINE
  5
9383
330
5F6E
100
AcDbEntity
  8
虚线
 48
0.2
100
AcDbLine
 10
1601.051826919962
 20
166.3472455969061
 30
0.0
 11
1601.051826919962
 21
157.9306901070415
 31
0.0
  0
ARC
  5
9384
330
5F6E
100
AcDbEntity
  8
虚线
 48
0.2
100
AcDbCircle
 10
1600.658126919947
 20
157.9306901070415
 30
0.0
 40
0.3937
100
AcDbArc
 50
271.0598379213051
 51
0.0
  0
LINE
  5
9385
330
5F6E
100
AcDbEntity
  8
虚线
 48
0.2
100
AcDbLine
 10
1600.665409033924
 20
157.5370574599985
 30
0.0
 11
1592.534288914331
 21
157.3866335968962
 31
0.0
  0
LINE
  5
9386
330
5F6E
100
AcDbEntity
  8
虚线
 48
0.2
100
AcDbLine
 10
1587.821377447496
 20
157.3866335968962
 30
0.0
 11
1592.534288914331
 21
157.3866335968962
 31
0.0
  0
ARC
  5
9387
330
5F6E
100
AcDbEntity
  8
虚线
 48
0.2
100
AcDbCircle
 10
1592.53428891436
 20
157.2685235969004
 30
0.0
 40
0.11811
100
AcDbArc
 50
90.0
 51
153.4349489362749
  0
ARC
  5
9388
330
5F6E
100
AcDbEntity
  8
虚线
 48
0.2
100
AcDbCircle
 10
1587.821376925547
 20
157.2685235969004
 30
0.0
 40
0.11811
100
AcDbArc
 50
26.56505132921099
 51
90.0
  0
ARC
  5
9389
330
5F6E
100
AcDbEntity
  8
虚线
 48
0.2
100
AcDbCircle
 10
1592.306684922756
 20
157.2094685968952
 30
0.0
 40
0.059055
100
AcDbArc
 50
270.0000000416882
 51
333.4349483590741
  0
ARC
  5
938A
330
5F6E
100
AcDbEntity
  8
虚线
 48
0.2
100
AcDbCircle
 10
1588.048980917151
 20
157.2094685968952
 30
0.0
 40
0.059055
100
AcDbArc
 50
206.5650522188748
 51
269.9999999583118
  0
LINE
  5
938B
330
5F6E
100
AcDbEntity
  8
虚线
 48
0.2
100
AcDbLine
 10
1587.996160519406
 20
157.1830583980375
 30
0.0
 11
1587.927017721095
 21
157.3213439946742
 31
0.0
  0
LINE
  5
938C
330
5F6E
100
AcDbEntity
  8
虚线
 48
0.2
100
AcDbLine
 10
1592.306684922756
 20
157.1504135969046
 30
0.0
 11
1591.949482919949
 21
157.1504135969046
 31
0.0
  0
LINE
  5
938D
330
5F6E
100
AcDbEntity
  8
虚线
 48
3.5
100
AcDbLine
 10
1588.406182919958
 20
157.0913585968994
 30
0.0
 11
1588.406182919958
 21
157.1504135969046
 31
0.0
  0
LINE
  5
938E
330
5F6E
100
AcDbEntity
  8
虚线
 48
0.2
100
AcDbLine
 10
1592.359505320501
 20
157.1830583980375
 30
0.0
 11
1592.428648118841
 21
157.3213439946742
 31
0.0
  0
LINE
  5
938F
330
5F6E
100
AcDbEntity
  8
虚线
 48
0.2
100
AcDbLine
 10
1591.949482919949
 20
157.0913585968994
 30
0.0
 11
1591.949482919949
 21
157.1504135969046
 31
0.0
  0
LINE
  5
9390
330
5F6E
100
AcDbEntity
  8
虚线
 48
0.2
100
AcDbLine
 10
1588.406182919958
 20
157.1504135969046
 30
0.0
 11
1588.048980917151
 21
157.1504135969046
 31
0.0
  0
LINE
  5
9391
330
5F6E
100
AcDbEntity
  8
虚线
 48
0.2
100
AcDbLine
 10
1591.949482919949
 20
157.1504135969046
 30
0.0
 11
1588.406182919958
 21
157.1504135969046
 31
0.0
  0
LINE
  5
9392
330
5F6E
100
AcDbEntity
  8
0
100
AcDbLine
 10
1592.412325718275
 20
157.1566481991506
 30
0.0
 11
1592.481468516586
 21
157.2949337958018
 31
0.0
  0
ARC
  5
9393
330
5F6E
100
AcDbEntity
  8
0
100
AcDbCircle
 10
1592.53428891436
 20
157.2685235969004
 30
0.0
 40
0.059055
100
AcDbArc
 50
90.0
 51
153.4349489362749
  0
LINE
  5
9394
330
5F6E
100
AcDbEntity
  8
0
100
AcDbLine
 10
1600.666448394981
 20
157.4770700327683
 30
0.0
 11
1592.534288914331
 21
157.3275785969056
 31
0.0
  0
ARC
  5
9395
330
5F6E
100
AcDbEntity
  8
0
100
AcDbCircle
 10
1592.306684922756
 20
157.2094685968952
 30
0.0
 40
0.11811
100
AcDbArc
 50
270.0000000416882
 51
333.4349483590741
  0
LINE
  5
9396
330
5F6E
100
AcDbEntity
  8
0
100
AcDbLine
 10
1592.306684922756
 20
157.0913585968994
 30
0.0
 11
1591.949482919949
 21
157.0913585968994
 31
0.0
  0
LINE
  5
9397
330
5F6E
100
AcDbEntity
  8
0
100
AcDbLine
 10
1591.949482919949
 20
157.0913585968994
 30
0.0
 11
1588.406182919958
 21
157.0913585968994
 31
0.0
  0
LINE
  5
9398
330
5F6E
100
AcDbEntity
  8
0
100
AcDbLine
 10
1588.406182919958
 20
157.0913585968994
 30
0.0
 11
1588.048980917151
 21
157.0913585968994
 31
0.0
  0
ARC
  5
9399
330
5F6E
100
AcDbEntity
  8
0
100
AcDbCircle
 10
1588.048980917151
 20
157.2094685968952
 30
0.0
 40
0.11811
100
AcDbArc
 50
206.5650522188748
 51
269.9999999583118
  0
LINE
  5
939A
330
5F6E
100
AcDbEntity
  8
0
100
AcDbLine
 10
1587.943340121632
 20
157.1566481991506
 30
0.0
 11
1587.874197323321
 21
157.2949337958018
 31
0.0
  0
ARC
  5
939B
330
5F6E
100
AcDbEntity
  8
0
100
AcDbCircle
 10
1587.821376925547
 20
157.2685235969004
 30
0.0
 40
0.059055
100
AcDbArc
 50
26.56505132921099
 51
90.0
  0
LINE
  5
939C
330
5F6E
100
AcDbEntity
  8
0
100
AcDbLine
 10
1602.429776919957
 20
166.4063005968967
 30
0.0
 11
1601.169936919973
 21
166.4063005968967
 31
0.0
  0
LINE
  5
939D
330
5F6E
100
AcDbEntity
  8
0
100
AcDbLine
 10
1601.110881919953
 20
166.3472455969061
 30
0.0
 11
1601.110881919953
 21
157.9297485534518
 31
0.0
  0
ARC
  5
939E
330
5F6E
100
AcDbEntity
  8
0
100
AcDbCircle
 10
1600.658126919976
 20
157.9297485534518
 30
0.0
 40
0.452755
100
AcDbArc
 50
271.0531352473829
 51
0.0
  0
LINE
  5
939F
330
5F6E
100
AcDbEntity
  8
0
100
AcDbLine
 10
1602.429776919957
 20
166.4653555969018
 30
0.0
 11
1602.429776919957
 21
166.4063005968967
 31
0.0
  0
ARC
  5
93A0
330
5F6E
100
AcDbEntity
  8
虚线
 48
3.5
100
AcDbCircle
 10
1601.169936919973
 20
166.3472455969061
 30
0.0
 40
0.11811
100
AcDbArc
 50
90.0
 51
180.0
  0
ARC
  5
93A1
330
5F6E
100
AcDbEntity
  8
0
100
AcDbCircle
 10
1601.169936919973
 20
166.3472455969061
 30
0.0
 40
0.059055
100
AcDbArc
 50
90.0
 51
180.0
  0
LINE
  5
93A2
330
5F6E
100
AcDbEntity
  8
虚线
 48
0.2
100
AcDbLine
 10
1579.690256805984
 20
157.5370574599985
 30
0.0
 11
1587.821376925577
 21
157.3866335968962
 31
0.0
  0
ARC
  5
93A3
330
5F6E
100
AcDbEntity
  8
虚线
 48
0.2
100
AcDbCircle
 10
1579.69753891996
 20
157.9306901070415
 30
0.0
 40
0.3937
100
AcDbArc
 50
180.0
 51
268.9401620786949
  0
LINE
  5
93A4
330
5F6E
100
AcDbEntity
  8
0
100
AcDbLine
 10
1579.689217444926
 20
157.4770700327683
 30
0.0
 11
1587.821376925577
 21
157.3275785969056
 31
0.0
  0
ARC
  5
93A5
330
5F6E
100
AcDbEntity
  8
0
100
AcDbCircle
 10
1579.69753891996
 20
157.9297485534518
 30
0.0
 40
0.452755
100
AcDbArc
 50
180.0
 51
268.9468647526171
  0
INSERT
  5
93A6
330
5F6E
100
AcDbEntity
  8
标注
100
AcDbBlockReference
  2
U
 10
449.533094183435
 20
4209.614919695549
 30
0.0
 41
0.0393700000131503
 42
0.0393699999985984
 43
0.03937
  0
INSERT
  5
93A7
330
5F6E
100
AcDbEntity
  8
标注
100
AcDbBlockReference
  2
U
 10
2730.822571656473
 20
4209.614919695549
 30
0.0
 41
-0.0393700000131503
 42
0.0393699999985984
 43
0.03937
  0
DIMENSION
  5
93A8
102
{ACAD_XDICTIONARY
360
93A9
102
}
102
{ACAD_REACTORS
330
93AA
102
}
330
5F6E
100
AcDbEntity
  8
标注线
 48
5.0
100
AcDbDimension
  2
*D74
 10
1601.051826919962
 20
122.3381521270823
 30
0.0
 11
1590.177832919968
 21
122.3381521270823
 31
0.0
 70
    32
 71
     5
 42
21.74798799998825
  3
副本Standard$0
100
AcDbAlignedDimension
 13
1579.303838919974
 23
126.6873718315366
 33
0.0
 14
1601.051826919962
 24
126.6873718315366
 34
0.0
100
AcDbRotatedDimension
1001
ACAD
1000
DSTYLE
1002
{
1070
     3
1000
"
1070
    41
1040
0.65
1070
    42
1040
0.88
1070
    43
1040
0.015
1070
    44
1040
0.32
1070
    79
1070
     0
1070
   140
1040
0.65
1070
   147
1040
0.3
1070
   171
1070
     1
1070
   179
1070
     0
1070
   271
1070
     3
1070
   272
1070
     3
1070
   273
1070
     2
1070
   274
1070
     1
1070
   276
1070
     2
1070
   277
1070
     5
1070
   278
1070
    46
1070
   279
1070
     2
1070
   284
1070
     8
1070
   285
1070
     8
1070
   286
1070
     8
1002
}
  0
DIMENSION
  5
93AB
102
{ACAD_XDICTIONARY
360
93AC
102
}
102
{ACAD_REACTORS
330
93AD
102
}
330
5F6E
100
AcDbEntity
  8
标注线
 48
5.0
100
AcDbDimension
  2
*D75
 10
1604.095474993302
 20
126.2936718315361
 30
0.0
 11
1604.095474993302
 21
134.7936548315379
 31
0.0
 70
   160
 71
     5
 42
16.99996600000305
  3
副本Standard$0
100
AcDbAlignedDimension
 13
1601.670417633586
 23
143.2936378315391
 33
0.0
 14
1601.051826919962
 24
126.2936718315361
 34
0.0
 50
90.0
100
AcDbRotatedDimension
1001
ACAD
1000
DSTYLE
1002
{
1070
     3
1000
"
1070
    41
1040
0.65
1070
    42
1040
0.88
1070
    43
1040
0.015
1070
    44
1040
0.32
1070
    79
1070
     0
1070
   140
1040
0.65
1070
   147
1040
0.3
1070
   171
1070
     1
1070
   179
1070
     0
1070
   271
1070
     3
1070
   272
1070
     3
1070
   273
1070
     2
1070
   274
1070
     1
1070
   276
1070
     2
1070
   277
1070
     5
1070
   278
1070
    46
1070
   279
1070
     2
1070
   284
1070
     8
1070
   285
1070
     8
1070
   286
1070
     8
1002
}
  0
DIMENSION
  5
93AE
330
5F6E
100
AcDbEntity
  8
标注线
 48
5.0
100
AcDbDimension
  2
*D70
 10
1605.665897165463
 20
125.0417058315399
 30
0.0
 11
1605.665897165463
 21
136.04168383154
 31
0.0
 70
   160
 71
     5
 42
21.99995599999967
  3
副本Standard$0
100
AcDbAlignedDimension
 13
1602.17780891996
 23
147.0416618315396
 33
0.0
 14
1602.232926919949
 24
125.0417058315399
 34
0.0
 50
90.0
100
AcDbRotatedDimension
1001
ACAD
1000
DSTYLE
1002
{
1070
     3
1000
"
1070
    41
1040
0.65
1070
    42
1040
0.88
1070
    43
1040
0.015
1070
    44
1040
0.32
1070
    79
1070
     0
1070
   140
1040
0.65
1070
   147
1040
0.3
1070
   171
1070
     1
1070
   179
1070
     0
1070
   271
1070
     3
1070
   272
1070
     3
1070
   273
1070
     2
1070
   274
1070
     1
1070
   276
1070
     2
1070
   277
1070
     5
1070
   278
1070
    46
1070
   279
1070
     2
1070
   284
1070
     8
1070
   285
1070
     8
1070
   286
1070
     8
1002
}
  0
POINT
  5
93AF
330
5F6E
100
AcDbEntity
  8
标注
 48
5.0
100
AcDbPoint
 10
1577.92588891995
 20
147.0416618315396
 30
0.0
  0
POINT
  5
93B0
330
5F6E
100
AcDbEntity
  8
标注
 48
5.0
100
AcDbPoint
 10
1602.429776919957
 20
147.041661831525
 30
0.0
  0
POINT
  5
93B1
330
5F6E
100
AcDbEntity
  8
标注
 48
5.0
100
AcDbPoint
 10
1602.429776919957
 20
125.0417058315399
 30
0.0
  0
POINT
  5
93B2
330
5F6E
100
AcDbEntity
  8
标注
 48
5.0
100
AcDbPoint
 10
1577.92588891995
 20
125.0417058315254
 30
0.0
  0
LINE
  5
93B3
330
5F6E
100
AcDbEntity
  8
0
100
AcDbLine
 10
1587.821376925547
 20
157.3275785969056
 30
0.0
 11
1592.53428891436
 21
157.3275785969056
 31
0.0
  0
LINE
  5
93B4
330
5F6E
100
AcDbEntity
  8
0
100
AcDbLine
 10
1579.185728919964
 20
166.4063005968967
 30
0.0
 11
1601.169936919973
 21
166.4063005968967
 31
0.0
  0
LINE
  5
93B5
330
5F6E
100
AcDbEntity
  8
0
100
AcDbLine
 10
1578.956890795011
 20
165.7763805969046
 30
0.0
 11
1578.956890795011
 21
166.4063005968967
 31
0.0
  0
LINE
  5
93B6
330
5F6E
100
AcDbEntity
  8
0
100
AcDbLine
 10
1578.956890795011
 20
165.7763805969046
 30
0.0
 11
1579.244783919954
 21
165.7763805969046
 31
0.0
  0
LINE
  5
93B7
330
5F6E
100
AcDbEntity
  8
0
100
AcDbLine
 10
1601.398775044925
 20
165.7763805969046
 30
0.0
 11
1601.110881919953
 21
165.7763805969046
 31
0.0
  0
LINE
  5
93B8
330
5F6E
100
AcDbEntity
  8
0
100
AcDbLine
 10
1601.398775044925
 20
165.7763805969046
 30
0.0
 11
1601.398775044925
 21
166.4063005968967
 31
0.0
  0
LINE
  5
93B9
102
{ACAD_REACTORS
330
93BF
102
}
330
5F6E
100
AcDbEntity
  8
中心线
  6
Continuous
 62
     1
100
AcDbLine
 10
1578.319588919965
 20
86.07861031290964
 30
0.0
 11
1578.319588919965
 21
107.2911663129082
 31
0.0
  0
LINE
  5
93BA
330
5F6E
100
AcDbEntity
  8
中心线
  6
Continuous
 62
     1
100
AcDbLine
 10
1578.319588919965
 20
86.07861031290964
 30
0.0
 11
1602.036076919971
 21
86.07861031290964
 31
0.0
  0
LINE
  5
93BB
102
{ACAD_REACTORS
330
93BF
102
}
330
5F6E
100
AcDbEntity
  8
中心线
  6
Continuous
 62
     1
100
AcDbLine
 10
1602.036076919971
 20
107.2911663129082
 30
0.0
 11
1602.036076919971
 21
86.07861031290964
 31
0.0
  0
LINE
  5
93BC
102
{ACAD_REACTORS
330
93C2
102
}
330
5F6E
100
AcDbEntity
  8
中心线
  6
Continuous
 62
     1
100
AcDbLine
 10
1578.319588919965
 20
107.2911663129082
 30
0.0
 11
1602.036076919971
 21
107.2911663129082
 31
0.0
  0
DIMENSION
  5
93BD
102
{ACAD_XDICTIONARY
360
93BE
102
}
102
{ACAD_REACTORS
330
93BF
102
}
330
5F6E
100
AcDbEntity
  8
标注线
 48
5.0
100
AcDbDimension
  2
*D76
 10
1578.319588919965
 20
83.5489629690071
 30
0.0
 11
1590.177832919968
 21
83.5489629690071
 31
0.0
 70
    32
 71
     5
 42
23.71648800000548
  3
副本Standard$0
100
AcDbAlignedDimension
 13
1602.036076919971
 23
86.07861031290964
 33
0.0
 14
1578.319588919965
 24
86.07861031290964
 34
0.0
100
AcDbRotatedDimension
1001
ACAD
1000
DSTYLE
1002
{
1070
     3
1000
"
1070
    41
1040
0.65
1070
    42
1040
0.88
1070
    43
1040
0.015
1070
    44
1040
0.32
1070
    79
1070
     0
1070
   140
1040
0.65
1070
   147
1040
0.3
1070
   171
1070
     1
1070
   179
1070
     0
1070
   271
1070
     3
1070
   272
1070
     3
1070
   273
1070
     2
1070
   274
1070
     1
1070
   276
1070
     2
1070
   277
1070
     5
1070
   278
1070
    46
1070
   279
1070
     2
1070
   284
1070
     8
1070
   285
1070
     8
1070
   286
1070
     8
1002
}
  0
DIMENSION
  5
93C0
102
{ACAD_XDICTIONARY
360
93C1
102
}
102
{ACAD_REACTORS
330
93C2
102
}
330
5F6E
100
AcDbEntity
  8
标注线
 48
5.0
100
AcDbDimension
  2
*D77
 10
1604.308065398955
 20
86.07861031290964
 30
0.0
 11
1604.308065398955
 21
96.68488831290918
 31
0.0
 70
    32
 71
     5
 42
21.21255599999859
  3
副本Standard$0
100
AcDbAlignedDimension
 13
1602.036076919971
 23
107.2911663129082
 33
0.0
 14
1602.036076919971
 24
86.07861031290964
 34
0.0
 50
90.0
100
AcDbRotatedDimension
1001
ACAD
1000
DSTYLE
1002
{
1070
     3
1000
"
1070
    41
1040
0.65
1070
    42
1040
0.88
1070
    43
1040
0.015
1070
    44
1040
0.32
1070
    79
1070
     0
1070
   140
1040
0.65
1070
   147
1040
0.3
1070
   171
1070
     1
1070
   179
1070
     0
1070
   271
1070
     3
1070
   272
1070
     3
1070
   273
1070
     2
1070
   274
1070
     1
1070
   276
1070
     2
1070
   277
1070
     5
1070
   278
1070
    46
1070
   279
1070
     2
1070
   284
1070
     8
1070
   285
1070
     8
1070
   286
1070
     8
1002
}
  0
DIMENSION
  5
94E4
330
5F6E
100
AcDbEntity
  8
标注线
100
AcDbDimension
  2
*D78
 10
1579.69753891996
 20
126.6873718315371
 30
0.0
 11
1580.330427986084
 21
128.0064216499181
 31
0.0
 70
   164
 71
     5
 42
0.3937000000005355
  3
副本STANDARD
100
AcDbRadialDimension
 15
1579.436624501553
 25
126.3925441593835
 35
0.0
 40
0.0
1001
ACAD
1000
DSTYLE
1002
{
1070
    49
1040
1.25
1070
    50
1040
1.570796326794896
1070
   288
1070
     1
1070
   345
1005
5F5E
1070
   346
1005
5F5E
1070
   347
1005
5F5E
1002
}
1001
ACAD_DSTYLE_DIMRADIAL_EXTENSION
1070
   387
1070
     1
1070
   388
1040
3.141592653589793
1070
   390
1040
4.712388980384689
  0
DIMENSION
  5
94EE
330
5F6E
100
AcDbEntity
  8
标注线
100
AcDbDimension
  2
*D79
 10
1579.697538919959
 20
157.9306901070412
 30
0.0
 11
1580.267032241176
 21
159.0434717204741
 31
0.0
 70
   164
 71
     5
 42
0.3936999999993986
  3
副本STANDARD
100
AcDbRadialDimension
 15
1579.452430274816
 25
157.6225968710308
 35
0.0
 40
0.0
1001
ACAD
1000
DSTYLE
1002
{
1070
    49
1040
1.25
1070
    50
1040
1.570796326794896
1070
   288
1070
     1
1070
   345
1005
5F5E
1070
   346
1005
5F5E
1070
   347
1005
5F5E
1002
}
1001
ACAD_DSTYLE_DIMRADIAL_EXTENSION
1070
   387
1070
     1
1070
   388
1040
3.141592653589793
1070
   390
1040
4.693891319120423
  0
TEXT
  5
950D
330
5F6E
100
AcDbEntity
  8
标注
100
AcDbText
 10
1586.665703223117
 20
154.3721387461847
 30
0.0
 40
0.7874015748031497
  1
FRONT VIEW
100
AcDbText
  0
TEXT
  5
950E
330
5F6E
100
AcDbEntity
  8
标注
100
AcDbText
 10
1584.996874529925
 20
116.6472942496406
 30
0.0
 40
0.7874015748031497
  1
OVERHEAD VIEW
100
AcDbText
  0
TEXT
  5
950F
330
5F6E
100
AcDbEntity
  8
标注
100
AcDbText
 10
1591.495129623266
 20
80.33540292267732
 30
0.0
 40
0.7874015748031497
  1
 CUTOUT
100
AcDbText
  0
LINE
  5
9510
330
5F6E
100
AcDbEntity
  8
中心线
  6
Continuous
 62
     1
100
AcDbLine
 10
1583.829723542699
 20
80.58860438998214
 30
0.0
 11
1590.046528546783
 21
80.58860438998214
 31
0.0
  0
ENDSEC
  0
SECTION
  2
OBJECTS
  0
DICTIONARY
  5
5F06
330
0
100
AcDbDictionary
281
     1
  3
ACAD_2007HEADERVARS_RT
350
9546
  3
ACAD_COLOR
350
5F64
  3
ACAD_GROUP
350
5F07
  3
ACAD_IMAGE_DICT
350
8BFE
  3
ACAD_IMAGE_VARS
350
8C00
  3
ACAD_LAYOUT
350
5F63
  3
ACAD_MATERIAL
350
5F0A
  3
ACAD_MLEADERSTYLE
350
5F67
  3
ACAD_MLINESTYLE
350
5F60
  3
ACAD_PLOTSETTINGS
350
5F62
  3
ACAD_PLOTSTYLENAME
350
5F08
  3
ACAD_SCALELIST
350
5F34
  3
ACAD_TABLESTYLE
350
5F65
  3
ACAD_VISUALSTYLE
350
5F23
  3
ACDB_RECOMPOSE_DATA
350
6F70
  3
AcDbVariableDictionary
350
6102
  3
DWGPROPS
350
9545
  3
lxx_dict
350
60F2
  0
DICTIONARY
  5
61B7
330
5EFC
100
AcDbDictionary
280
     1
281
     1
  3
ACAD_LAYERSTATES
360
61B8
  0
DICTIONARY
  5
60F4
330
5F56
100
AcDbDictionary
280
     1
281
     1
  3
ADSK_XREC_LAYER_RECONCILED
360
60F5
  0
DICTIONARY
  5
60F6
330
5F72
100
AcDbDictionary
280
     1
281
     1
  3
ADSK_XREC_LAYER_RECONCILED
360
60F7
  0
DICTIONARY
  5
60F8
330
5F7D
100
AcDbDictionary
280
     1
281
     1
  3
ADSK_XREC_LAYER_RECONCILED
360
60F9
  0
DICTIONARY
  5
60FA
330
5F7E
100
AcDbDictionary
280
     1
281
     1
  3
ADSK_XREC_LAYER_RECONCILED
360
60FB
  0
DICTIONARY
  5
60FC
330
5F80
100
AcDbDictionary
280
     1
281
     1
  3
ADSK_XREC_LAYER_RECONCILED
360
60FD
  0
DICTIONARY
  5
6B9D
330
6B9C
100
AcDbDictionary
280
     1
281
     1
  0
DICTIONARY
  5
654F
330
5F6E
100
AcDbDictionary
280
     1
281
     1
  3
ACAD_SORTENTS
360
6550
  0
DICTIONARY
  5
9551
330
9273
100
AcDbDictionary
280
     1
281
     1
  3
ACAD_MTEXT_RT
360
9552
  0
DICTIONARY
  5
9553
330
927E
100
AcDbDictionary
280
     1
281
     1
  3
ACAD_MTEXT_RT
360
9554
  0
DICTIONARY
  5
9557
330
9499
100
AcDbDictionary
280
     1
281
     1
  3
ACAD_MTEXT_RT
360
9558
  0
DICTIONARY
  5
9555
330
9491
100
AcDbDictionary
280
     1
281
     1
  3
ACAD_MTEXT_RT
360
9556
  0
DICTIONARY
  5
935E
330
935D
100
AcDbDictionary
280
     1
281
     1
  3
ACAD_DIMASSOC
360
935F
  0
DICTIONARY
  5
9370
330
936F
100
AcDbDictionary
280
     1
281
     1
  3
ACAD_DIMASSOC
360
9371
  0
DICTIONARY
  5
9373
330
9372
100
AcDbDictionary
280
     1
281
     1
  3
ACAD_DIMASSOC
360
9374
  0
DICTIONARY
  5
93A9
330
93A8
100
AcDbDictionary
280
     1
281
     1
  3
ACAD_DIMASSOC
360
93AA
  0
DICTIONARY
  5
93AC
330
93AB
100
AcDbDictionary
280
     1
281
     1
  3
ACAD_DIMASSOC
360
93AD
  0
DICTIONARY
  5
93BE
330
93BD
100
AcDbDictionary
280
     1
281
     1
  3
ACAD_DIMASSOC
360
93BF
  0
DICTIONARY
  5
93C1
330
93C0
100
AcDbDictionary
280
     1
281
     1
  3
ACAD_DIMASSOC
360
93C2
  0
DICTIONARY
  5
9546
102
{ACAD_REACTORS
330
5F06
102
}
330
5F06
100
AcDbDictionary
281
     1
  3
DIMFXL
350
9547
  3
DIMJOGANG
350
9548
  3
DIMLTEX1
350
954A
  3
DIMLTEX2
350
954B
  3
DIMLTYPE
350
9549
  0
DICTIONARY
  5
5F64
102
{ACAD_REACTORS
330
5F06
102
}
330
5F06
100
AcDbDictionary
281
     1
  0
DICTIONARY
  5
5F07
102
{ACAD_REACTORS
330
5F06
102
}
330
5F06
100
AcDbDictionary
281
     1
  0
DICTIONARY
  5
8BFE
102
{ACAD_REACTORS
330
5F06
102
}
330
5F06
100
AcDbDictionary
281
     1
  0
RASTERVARIABLES
  5
8C00
102
{ACAD_REACTORS
330
5F06
102
}
330
5F06
100
AcDbRasterVariables
 90
        0
 70
     1
 71
     1
 72
     0
  0
DICTIONARY
  5
5F63
102
{ACAD_REACTORS
330
5F06
102
}
330
5F06
100
AcDbDictionary
281
     1
  3
Model
350
5F71
  3
布局1
350
5F6D
  0
DICTIONARY
  5
5F0A
102
{ACAD_REACTORS
330
5F06
102
}
330
5F06
100
AcDbDictionary
281
     1
  3
ByBlock
350
5F13
  3
ByLayer
350
5F0B
  3
Global
350
5F1B
  0
DICTIONARY
  5
5F67
102
{ACAD_REACTORS
330
5F06
102
}
330
5F06
100
AcDbDictionary
281
     1
  3
Standard
350
5F68
  0
DICTIONARY
  5
5F60
102
{ACAD_REACTORS
330
5F06
102
}
330
5F06
100
AcDbDictionary
281
     1
  3
Standard
350
5F61
  0
DICTIONARY
  5
5F62
102
{ACAD_REACTORS
330
5F06
102
}
330
5F06
100
AcDbDictionary
281
     1
  0
ACDBDICTIONARYWDFLT
  5
5F08
102
{ACAD_REACTORS
330
5F06
102
}
330
5F06
100
AcDbDictionary
281
     1
  3
Normal
350
5F09
100
AcDbDictionaryWithDefault
340
5F09
  0
DICTIONARY
  5
5F34
102
{ACAD_REACTORS
330
5F06
102
}
330
5F06
100
AcDbDictionary
281
     1
  3
A0
350
5F35
  3
A1
350
5F36
  3
A2
350
5F37
  3
A3
350
5F38
  3
A4
350
5F39
  3
A5
350
5F3A
  3
A6
350
5F3B
  3
A7
350
5F3C
  3
A8
350
5F3D
  3
A9
350
5F3E
  3
B0
350
5F3F
  3
B1
350
5F40
  3
B2
350
5F41
  3
B3
350
5F42
  3
B4
350
5F43
  3
B5
350
5F44
  3
B6
350
5F45
  3
B7
350
5F46
  3
B8
350
5F47
  3
B9
350
5F48
  3
C0
350
5F49
  3
C1
350
5F4A
  3
C2
350
5F4B
  3
C3
350
5F4C
  3
C4
350
5F4D
  3
C5
350
5F4E
  3
C6
350
5F4F
  3
C7
350
5F50
  3
C8
350
5F51
  3
C9
350
5F52
  3
D0
350
5F53
  3
D1
350
5F54
  3
D2
350
5F55
  0
DICTIONARY
  5
5F65
102
{ACAD_REACTORS
330
5F06
102
}
330
5F06
100
AcDbDictionary
281
     1
  3
Standard
350
5F66
  0
DICTIONARY
  5
5F23
102
{ACAD_REACTORS
330
5F06
102
}
330
5F06
100
AcDbDictionary
281
     1
  3
2dWireframe
350
5F29
  3
3D Hidden
350
5F2B
  3
3dWireframe
350
5F2A
  3
Basic
350
5F28
  3
Brighten
350
5F2F
  3
ColorChange
350
5F33
  3
Conceptual
350
5F2C
  3
Dim
350
5F2E
  3
Facepattern
350
5F32
  3
Flat
350
5F24
  3
FlatWithEdges
350
5F25
  3
Gouraud
350
5F26
  3
GouraudWithEdges
350
5F27
  3
Linepattern
350
5F31
  3
Realistic
350
5F2D
  3
Thicken
350
5F30
  0
XRECORD
  5
6F70
102
{ACAD_REACTORS
330
5F06
102
}
330
5F06
100
AcDbXrecord
280
     1
 90
        1
330
5F66
  0
DICTIONARY
  5
6102
102
{ACAD_REACTORS
330
5F06
102
}
330
5F06
100
AcDbDictionary
281
     1
  3
CANNOSCALE
350
6105
  3
CMLEADERSTYLE
350
6104
  3
CTABLESTYLE
350
6103
  3
DIMASSOC
350
6108
  3
INDEXCTL
350
6107
  3
SORTENTS
350
6106
  0
XRECORD
  5
9545
102
{ACAD_REACTORS
330
5F06
102
}
330
5F06
100
AcDbXrecord
280
     1
  1
DWGPROPS COOKIE
  2

  3

  4

  6

  7

  8
Administrator
  9

300
=
301
=
302
=
303
=
304
=
305
=
306
=
307
=
308
=
309
=
 40
0.8216291435185185
 41
2455434.724808658
 42
2458649.633575706
  1

 90
        0
  0
DICTIONARY
  5
60F2
102
{ACAD_REACTORS
330
5F06
102
}
330
5F06
100
AcDbDictionary
281
     1
  3
lxx_dimth
350
60F3
  0
DICTIONARY
  5
61B8
102
{ACAD_REACTORS
330
61B7
102
}
330
61B7
100
AcDbDictionary
281
     1
  0
XRECORD
  5
60F5
102
{ACAD_REACTORS
330
60F4
102
}
330
60F4
100
AcDbXrecord
280
     1
290
     1
  0
XRECORD
  5
60F7
102
{ACAD_REACTORS
330
60F6
102
}
330
60F6
100
AcDbXrecord
280
     1
290
     1
  0
XRECORD
  5
60F9
102
{ACAD_REACTORS
330
60F8
102
}
330
60F8
100
AcDbXrecord
280
     1
290
     1
  0
XRECORD
  5
60FB
102
{ACAD_REACTORS
330
60FA
102
}
330
60FA
100
AcDbXrecord
280
     1
290
     1
  0
XRECORD
  5
60FD
102
{ACAD_REACTORS
330
60FC
102
}
330
60FC
100
AcDbXrecord
280
     1
290
     1
  0
SORTENTSTABLE
  5
6550
102
{ACAD_REACTORS
330
654F
102
}
330
654F
100
AcDbSortentsTable
330
5F6E
  0
XRECORD
  5
9552
102
{ACAD_REACTORS
330
9551
102
}
330
9551
100
AcDbXrecord
280
     1
 40
2834.0
  1
\U+22053,5
  0
XRECORD
  5
9554
102
{ACAD_REACTORS
330
9553
102
}
330
9553
100
AcDbXrecord
280
     1
 40
2852.0
  1
\U+22054,6
  0
XRECORD
  5
9558
102
{ACAD_REACTORS
330
9557
102
}
330
9557
100
AcDbXrecord
280
     1
 40
7586.0
  1
\A1;\U+22053 1/2"
  0
XRECORD
  5
9556
102
{ACAD_REACTORS
330
9555
102
}
330
9555
100
AcDbXrecord
280
     1
 40
7750.0
  1
\A1;\U+22054 5/8"
  0
DIMASSOC
  5
935F
102
{ACAD_REACTORS
330
935E
102
}
330
935E
100
AcDbDimAssoc
330
935D
 90
        2
 70
     0
 71
     0
  1
AcDbOsnapPointRef
 72
     1
331
935B
 73
     2
 91
        0
 40
1.0
 10
0.0
 20
0.0
 30
2.000000000000000E+50
 75
     0
  0
DIMASSOC
  5
9371
102
{ACAD_REACTORS
330
9370
102
}
330
9370
100
AcDbDimAssoc
330
936F
 90
        2
 70
     0
 71
     0
  1
AcDbOsnapPointRef
 72
     3
331
936C
 73
     2
 91
        0
 40
0.0
 10
0.0
 20
0.0
 30
0.0
 75
     0
  0
DIMASSOC
  5
9374
102
{ACAD_REACTORS
330
9373
102
}
330
9373
100
AcDbDimAssoc
330
9372
 90
        2
 70
     0
 71
     0
  1
AcDbOsnapPointRef
 72
     3
331
936E
 73
     2
 91
        0
 40
0.0
 10
0.0
 20
0.0
 30
0.0
 75
     0
  0
DIMASSOC
  5
93AA
102
{ACAD_REACTORS
330
93A9
102
}
330
93A9
100
AcDbDimAssoc
330
93A8
 90
        1
 70
     0
 71
     0
  1
AcDbOsnapPointRef
 72
     1
331
9366
 73
     2
 91
        0
 40
1.0
 10
0.0
 20
0.0
 30
2.000000000000000E+50
 75
     0
  0
DIMASSOC
  5
93AD
102
{ACAD_REACTORS
330
93AC
102
}
330
93AC
100
AcDbDimAssoc
330
93AB
 90
        1
 70
     0
 71
     0
  1
AcDbOsnapPointRef
 72
    11
331
9376
 73
     2
 91
        0
 40
0.0
 10
0.0
 20
0.0
 30
0.0
332
9361
 74
     2
 92
        0
 75
     0
  0
DIMASSOC
  5
93BF
102
{ACAD_REACTORS
330
93BE
102
}
330
93BE
100
AcDbDimAssoc
330
93BD
 90
        3
 70
     0
 71
     0
  1
AcDbOsnapPointRef
 72
     1
331
93BB
 73
     2
 91
        0
 40
1.0
 10
0.0
 20
0.0
 30
2.000000000000000E+50
 75
     0
  1
AcDbOsnapPointRef
 72
     8
331
93B9
 73
     2
 91
        0
 40
0.0
 10
0.0
 20
0.0
 30
0.0
 75
     1
  1
AcDbOsnapPointRef
 72
     1
331
93BB
 73
     2
 91
        0
 40
1.0
 10
0.0
 20
0.0
 30
2.000000000000000E+50
 75
     0
  0
DIMASSOC
  5
93C2
102
{ACAD_REACTORS
330
93C1
102
}
330
93C1
100
AcDbDimAssoc
330
93C0
 90
        1
 70
     0
 71
     0
  1
AcDbOsnapPointRef
 72
     1
331
93BC
 73
     2
 91
        0
 40
1.0
 10
0.0
 20
0.0
 30
2.000000000000000E+50
 75
     0
  0
XRECORD
  5
9547
102
{ACAD_REACTORS
330
9546
102
}
330
9546
100
AcDbXrecord
280
     1
 40
1.25
  0
XRECORD
  5
9548
102
{ACAD_REACTORS
330
9546
102
}
330
9546
100
AcDbXrecord
280
     1
 40
1.570796326794896
  0
XRECORD
  5
954A
102
{ACAD_REACTORS
330
9546
102
}
330
9546
100
AcDbXrecord
280
     1
340
5F5E
  0
XRECORD
  5
954B
102
{ACAD_REACTORS
330
9546
102
}
330
9546
100
AcDbXrecord
280
     1
340
5F5E
  0
XRECORD
  5
9549
102
{ACAD_REACTORS
330
9546
102
}
330
9546
100
AcDbXrecord
280
     1
340
5F5E
  0
LAYOUT
  5
5F71
102
{ACAD_XDICTIONARY
360
954F
102
}
102
{ACAD_REACTORS
330
5F63
102
}
330
5F63
100
AcDbPlotSettings
  1

  2
\\192.168.1.64\Canon LBP2900
  4
A4
  6

 40
5.873749732971191
 41
6.805061340332031
 42
5.873748779296875
 43
4.857757568359375
 44
209.9733276367186
 45
296.9259948730469
 46
0.0
 47
0.0
 48
0.0
 49
0.0
140
0.0
141
0.0
142
1.0
143
15.879357507287
 70
 11952
 72
     0
 73
     1
 74
     0
  7

 75
     0
147
0.0629748401055334
148
-27226.80690415248
149
-2266.514499453142
100
AcDbLayout
  1
Model
 70
     1
 71
     0
 10
0.0
 20
0.0
 11
12.0
 21
9.0
 12
0.0
 22
0.0
 32
0.0
 14
0.0
 24
0.0
 34
0.0
 15
0.0
 25
0.0
 35
0.0
146
0.0
 13
0.0
 23
0.0
 33
0.0
 16
1.0
 26
0.0
 36
0.0
 17
0.0
 27
1.0
 37
0.0
 76
     0
330
5F6E
331
5F73
1001
ACAD_PSEXT
1000
\\192.168.1.64\Canon LBP2900
1000
Canon LBP2900
1000
\\192.168.1.64
1000

1070
     0
  0
LAYOUT
  5
5F6D
102
{ACAD_XDICTIONARY
360
954D
102
}
102
{ACAD_REACTORS
330
5F63
102
}
330
5F63
100
AcDbPlotSettings
  1

  2
\\192.168.1.64\Canon LBP2900
  4

  6

 40
0.0
 41
0.0
 42
0.0
 43
0.0
 44
0.0
 45
0.0
 46
0.0
 47
0.0
 48
0.0
 49
0.0
140
0.0
141
0.0
142
1.0
143
1.0
 70
   688
 72
     0
 73
     0
 74
     5
  7

 75
    16
147
1.0
148
0.0
149
0.0
100
AcDbLayout
  1
布局1
 70
     1
 71
     1
 10
0.0
 20
0.0
 11
12.0
 21
9.0
 12
0.0
 22
0.0
 32
0.0
 14
1.000000000000000E+20
 24
1.000000000000000E+20
 34
1.000000000000000E+20
 15
-1.000000000000000E+20
 25
-1.000000000000000E+20
 35
-1.000000000000000E+20
146
0.0
 13
0.0
 23
0.0
 33
0.0
 16
1.0
 26
0.0
 36
0.0
 17
0.0
 27
1.0
 37
0.0
 76
     0
330
5F6A
  0
MATERIAL
  5
5F13
102
{ACAD_XDICTIONARY
360
5F14
102
}
102
{ACAD_REACTORS
330
5F0A
102
}
330
5F0A
100
AcDbMaterial
  1
ByBlock
 72
     0
 43
0.0208333333333333
 43
0.0
 43
0.0
 43
0.0
 43
0.0
 43
0.0208333333333333
 43
0.0
 43
0.0
 43
0.0
 43
0.0
 43
1.0
 43
0.0
 43
0.0
 43
0.0
 43
0.0
 43
1.0
 77
     0
 47
0.0208333333333333
 47
0.0
 47
0.0
 47
0.0
 47
0.0
 47
0.0208333333333333
 47
0.0
 47
0.0
 47
0.0
 47
0.0
 47
1.0
 47
0.0
 47
0.0
 47
0.0
 47
0.0
 47
1.0
171
     0
 49
0.0208333333333333
 49
0.0
 49
0.0
 49
0.0
 49
0.0
 49
0.0208333333333333
 49
0.0
 49
0.0
 49
0.0
 49
0.0
 49
1.0
 49
0.0
 49
0.0
 49
0.0
 49
0.0
 49
1.0
175
     0
142
0.0208333333333333
142
0.0
142
0.0
142
0.0
142
0.0
142
0.0208333333333333
142
0.0
142
0.0
142
0.0
142
0.0
142
1.0
142
0.0
142
0.0
142
0.0
142
0.0
142
1.0
179
     0
144
0.0208333333333333
144
0.0
144
0.0
144
0.0
144
0.0
144
0.0208333333333333
144
0.0
144
0.0
144
0.0
144
0.0
144
1.0
144
0.0
144
0.0
144
0.0
144
0.0
144
1.0
147
0.0208333333333333
147
0.0
147
0.0
147
0.0
147
0.0
147
0.0208333333333333
147
0.0
147
0.0
147
0.0
147
0.0
147
1.0
147
0.0
147
0.0
147
0.0
147
0.0
147
1.0
  0
MATERIAL
  5
5F0B
102
{ACAD_XDICTIONARY
360
5F0C
102
}
102
{ACAD_REACTORS
330
5F0A
102
}
330
5F0A
100
AcDbMaterial
  1
ByLayer
 72
     0
 43
0.0208333333333333
 43
0.0
 43
0.0
 43
0.0
 43
0.0
 43
0.0208333333333333
 43
0.0
 43
0.0
 43
0.0
 43
0.0
 43
1.0
 43
0.0
 43
0.0
 43
0.0
 43
0.0
 43
1.0
 77
     0
 47
0.0208333333333333
 47
0.0
 47
0.0
 47
0.0
 47
0.0
 47
0.0208333333333333
 47
0.0
 47
0.0
 47
0.0
 47
0.0
 47
1.0
 47
0.0
 47
0.0
 47
0.0
 47
0.0
 47
1.0
171
     0
 49
0.0208333333333333
 49
0.0
 49
0.0
 49
0.0
 49
0.0
 49
0.0208333333333333
 49
0.0
 49
0.0
 49
0.0
 49
0.0
 49
1.0
 49
0.0
 49
0.0
 49
0.0
 49
0.0
 49
1.0
175
     0
142
0.0208333333333333
142
0.0
142
0.0
142
0.0
142
0.0
142
0.0208333333333333
142
0.0
142
0.0
142
0.0
142
0.0
142
1.0
142
0.0
142
0.0
142
0.0
142
0.0
142
1.0
179
     0
144
0.0208333333333333
144
0.0
144
0.0
144
0.0
144
0.0
144
0.0208333333333333
144
0.0
144
0.0
144
0.0
144
0.0
144
1.0
144
0.0
144
0.0
144
0.0
144
0.0
144
1.0
147
0.0208333333333333
147
0.0
147
0.0
147
0.0
147
0.0
147
0.0208333333333333
147
0.0
147
0.0
147
0.0
147
0.0
147
1.0
147
0.0
147
0.0
147
0.0
147
0.0
147
1.0
  0
MATERIAL
  5
5F1B
102
{ACAD_XDICTIONARY
360
5F1C
102
}
102
{ACAD_REACTORS
330
5F0A
102
}
330
5F0A
100
AcDbMaterial
  1
Global
 72
     0
 43
0.0208333333333333
 43
0.0
 43
0.0
 43
0.0
 43
0.0
 43
0.0208333333333333
 43
0.0
 43
0.0
 43
0.0
 43
0.0
 43
1.0
 43
0.0
 43
0.0
 43
0.0
 43
0.0
 43
1.0
 77
     0
 47
0.0208333333333333
 47
0.0
 47
0.0
 47
0.0
 47
0.0
 47
0.0208333333333333
 47
0.0
 47
0.0
 47
0.0
 47
0.0
 47
1.0
 47
0.0
 47
0.0
 47
0.0
 47
0.0
 47
1.0
171
     0
 49
0.0208333333333333
 49
0.0
 49
0.0
 49
0.0
 49
0.0
 49
0.0208333333333333
 49
0.0
 49
0.0
 49
0.0
 49
0.0
 49
1.0
 49
0.0
 49
0.0
 49
0.0
 49
0.0
 49
1.0
175
     0
142
0.0208333333333333
142
0.0
142
0.0
142
0.0
142
0.0
142
0.0208333333333333
142
0.0
142
0.0
142
0.0
142
0.0
142
1.0
142
0.0
142
0.0
142
0.0
142
0.0
142
1.0
179
     0
144
0.0208333333333333
144
0.0
144
0.0
144
0.0
144
0.0
144
0.0208333333333333
144
0.0
144
0.0
144
0.0
144
0.0
144
1.0
144
0.0
144
0.0
144
0.0
144
0.0
144
1.0
147
0.0208333333333333
147
0.0
147
0.0
147
0.0
147
0.0
147
0.0208333333333333
147
0.0
147
0.0
147
0.0
147
0.0
147
1.0
147
0.0
147
0.0
147
0.0
147
0.0
147
1.0
  0
MLEADERSTYLE
  5
5F68
102
{ACAD_REACTORS
330
5F67
102
}
330
5F67
100
AcDbMLeaderStyle
170
     2
171
     1
172
     0
 90
        2
 40
0.0
 41
0.0
173
     1
 91
-1056964608
340
5F5C
 92
       -2
290
     1
 42
0.09
291
     1
 43
0.36
  3
Standard
 44
0.18
300

342
5F57
174
     1
178
     6
175
     1
176
     0
 93
-1056964608
 45
0.18
292
     0
297
     0
 46
0.18
 94
-1056964608
 47
1.0
 49
1.0
140
1.0
293
     1
141
0.0
294
     1
177
     0
142
1.0
295
     0
296
     0
143
0.125
1001
ACAD_MLEADERVER
1070
     2
  0
MLINESTYLE
  5
5F61
102
{ACAD_REACTORS
330
5F60
102
}
330
5F60
100
AcDbMlineStyle
  2
STANDARD
 70
     0
  3

 62
   256
 51
90.0
 52
90.0
 71
     2
 49
0.5
 62
   256
  6
BYLAYER
 49
-0.5
 62
   256
  6
BYLAYER
  0
ACDBPLACEHOLDER
  5
5F09
102
{ACAD_REACTORS
330
5F08
102
}
330
5F08
  0
SCALE
  5
5F35
102
{ACAD_REACTORS
330
5F34
102
}
330
5F34
100
AcDbScale
 70
     0
300
1:1
140
1.0
141
1.0
290
     1
  0
SCALE
  5
5F36
102
{ACAD_REACTORS
330
5F34
102
}
330
5F34
100
AcDbScale
 70
     0
300
1:2
140
1.0
141
2.0
290
     0
  0
SCALE
  5
5F37
102
{ACAD_REACTORS
330
5F34
102
}
330
5F34
100
AcDbScale
 70
     0
300
1:4
140
1.0
141
4.0
290
     0
  0
SCALE
  5
5F38
102
{ACAD_REACTORS
330
5F34
102
}
330
5F34
100
AcDbScale
 70
     0
300
1:5
140
1.0
141
5.0
290
     0
  0
SCALE
  5
5F39
102
{ACAD_REACTORS
330
5F34
102
}
330
5F34
100
AcDbScale
 70
     0
300
1:8
140
1.0
141
8.0
290
     0
  0
SCALE
  5
5F3A
102
{ACAD_REACTORS
330
5F34
102
}
330
5F34
100
AcDbScale
 70
     0
300
1:10
140
1.0
141
10.0
290
     0
  0
SCALE
  5
5F3B
102
{ACAD_REACTORS
330
5F34
102
}
330
5F34
100
AcDbScale
 70
     0
300
1:16
140
1.0
141
16.0
290
     0
  0
SCALE
  5
5F3C
102
{ACAD_REACTORS
330
5F34
102
}
330
5F34
100
AcDbScale
 70
     0
300
1:20
140
1.0
141
20.0
290
     0
  0
SCALE
  5
5F3D
102
{ACAD_REACTORS
330
5F34
102
}
330
5F34
100
AcDbScale
 70
     0
300
1:30
140
1.0
141
30.0
290
     0
  0
SCALE
  5
5F3E
102
{ACAD_REACTORS
330
5F34
102
}
330
5F34
100
AcDbScale
 70
     0
300
1:40
140
1.0
141
40.0
290
     0
  0
SCALE
  5
5F3F
102
{ACAD_REACTORS
330
5F34
102
}
330
5F34
100
AcDbScale
 70
     0
300
1:50
140
1.0
141
50.0
290
     0
  0
SCALE
  5
5F40
102
{ACAD_REACTORS
330
5F34
102
}
330
5F34
100
AcDbScale
 70
     0
300
1:100
140
1.0
141
100.0
290
     0
  0
SCALE
  5
5F41
102
{ACAD_REACTORS
330
5F34
102
}
330
5F34
100
AcDbScale
 70
     0
300
2:1
140
2.0
141
1.0
290
     0
  0
SCALE
  5
5F42
102
{ACAD_REACTORS
330
5F34
102
}
330
5F34
100
AcDbScale
 70
     0
300
4:1
140
4.0
141
1.0
290
     0
  0
SCALE
  5
5F43
102
{ACAD_REACTORS
330
5F34
102
}
330
5F34
100
AcDbScale
 70
     0
300
8:1
140
8.0
141
1.0
290
     0
  0
SCALE
  5
5F44
102
{ACAD_REACTORS
330
5F34
102
}
330
5F34
100
AcDbScale
 70
     0
300
10:1
140
10.0
141
1.0
290
     0
  0
SCALE
  5
5F45
102
{ACAD_REACTORS
330
5F34
102
}
330
5F34
100
AcDbScale
 70
     0
300
100:1
140
100.0
141
1.0
290
     0
  0
SCALE
  5
5F46
102
{ACAD_REACTORS
330
5F34
102
}
330
5F34
100
AcDbScale
 70
     0
300
1/128" = 1'-0"
140
0.0078125
141
12.0
290
     0
  0
SCALE
  5
5F47
102
{ACAD_REACTORS
330
5F34
102
}
330
5F34
100
AcDbScale
 70
     0
300
1/64" = 1'-0"
140
0.015625
141
12.0
290
     0
  0
SCALE
  5
5F48
102
{ACAD_REACTORS
330
5F34
102
}
330
5F34
100
AcDbScale
 70
     0
300
1/32" = 1'-0"
140
0.03125
141
12.0
290
     0
  0
SCALE
  5
5F49
102
{ACAD_REACTORS
330
5F34
102
}
330
5F34
100
AcDbScale
 70
     0
300
1/16" = 1'-0"
140
0.0625
141
12.0
290
     0
  0
SCALE
  5
5F4A
102
{ACAD_REACTORS
330
5F34
102
}
330
5F34
100
AcDbScale
 70
     0
300
3/32" = 1'-0"
140
0.09375
141
12.0
290
     0
  0
SCALE
  5
5F4B
102
{ACAD_REACTORS
330
5F34
102
}
330
5F34
100
AcDbScale
 70
     0
300
1/8" = 1'-0"
140
0.125
141
12.0
290
     0
  0
SCALE
  5
5F4C
102
{ACAD_REACTORS
330
5F34
102
}
330
5F34
100
AcDbScale
 70
     0
300
3/16" = 1'-0"
140
0.1875
141
12.0
290
     0
  0
SCALE
  5
5F4D
102
{ACAD_REACTORS
330
5F34
102
}
330
5F34
100
AcDbScale
 70
     0
300
1/4" = 1'-0"
140
0.25
141
12.0
290
     0
  0
SCALE
  5
5F4E
102
{ACAD_REACTORS
330
5F34
102
}
330
5F34
100
AcDbScale
 70
     0
300
3/8" = 1'-0"
140
0.375
141
12.0
290
     0
  0
SCALE
  5
5F4F
102
{ACAD_REACTORS
330
5F34
102
}
330
5F34
100
AcDbScale
 70
     0
300
1/2" = 1'-0"
140
0.5
141
12.0
290
     0
  0
SCALE
  5
5F50
102
{ACAD_REACTORS
330
5F34
102
}
330
5F34
100
AcDbScale
 70
     0
300
3/4" = 1'-0"
140
0.75
141
12.0
290
     0
  0
SCALE
  5
5F51
102
{ACAD_REACTORS
330
5F34
102
}
330
5F34
100
AcDbScale
 70
     0
300
1" = 1'-0"
140
1.0
141
12.0
290
     0
  0
SCALE
  5
5F52
102
{ACAD_REACTORS
330
5F34
102
}
330
5F34
100
AcDbScale
 70
     0
300
1-1/2" = 1'-0"
140
1.5
141
12.0
290
     0
  0
SCALE
  5
5F53
102
{ACAD_REACTORS
330
5F34
102
}
330
5F34
100
AcDbScale
 70
     0
300
3" = 1'-0"
140
3.0
141
12.0
290
     0
  0
SCALE
  5
5F54
102
{ACAD_REACTORS
330
5F34
102
}
330
5F34
100
AcDbScale
 70
     0
300
6" = 1'-0"
140
6.0
141
12.0
290
     0
  0
SCALE
  5
5F55
102
{ACAD_REACTORS
330
5F34
102
}
330
5F34
100
AcDbScale
 70
     0
300
1'-0" = 1'-0"
140
12.0
141
12.0
290
     0
  0
TABLESTYLE
  5
5F66
102
{ACAD_XDICTIONARY
360
6F6E
102
}
102
{ACAD_REACTORS
330
5F65
102
}
330
5F65
100
AcDbTableStyle
  3
Standard
 70
     0
 71
     0
 40
0.06
 41
0.06
280
     0
281
     0
  7
STANDARD
140
0.18
170
     2
 62
     0
 63
     7
283
     0
274
    -2
284
     1
 64
     0
275
    -2
285
     1
 65
     0
276
    -2
286
     1
 66
     0
277
    -2
287
     1
 67
     0
278
    -2
288
     1
 68
     0
279
    -2
289
     1
 69
     0
  7
STANDARD
140
0.25
170
     5
 62
     0
 63
     7
283
     0
274
    -2
284
     1
 64
     0
275
    -2
285
     1
 65
     0
276
    -2
286
     1
 66
     0
277
    -2
287
     1
 67
     0
278
    -2
288
     1
 68
     0
279
    -2
289
     1
 69
     0
  7
STANDARD
140
0.18
170
     5
 62
     0
 63
     7
283
     0
274
    -2
284
     1
 64
     0
275
    -2
285
     1
 65
     0
276
    -2
286
     1
 66
     0
277
    -2
287
     1
 67
     0
278
    -2
288
     1
 68
     0
279
    -2
289
     1
 69
     0
  0
VISUALSTYLE
  5
5F29
102
{ACAD_REACTORS
330
5F23
102
}
330
5F23
100
AcDbVisualStyle
  2
2dWireframe
 70
     4
 71
     0
 72
     2
 73
     0
 90
        0
 40
-0.6
 41
-30.0
 62
     5
 63
     7
 74
     1
 91
        4
 64
     7
 65
   257
 75
     1
175
     1
 42
1.0
 92
        0
 66
   257
 43
1.0
 76
     1
 77
     6
 78
     2
 67
     7
 79
     5
170
     0
171
     0
290
     0
174
     0
 93
        1
 44
0.0
173
     0
291
     0
 45
0.0
1001
ACAD
1000
AcDbSavedByObjectVersion
1070
     0
1000
AcDbSavedByObjectVersion
1070
     0
1000
AcDbSavedByObjectVersion
1070
     0
1000
AcDbSavedByObjectVersion
1070
     0
1000
AcDbSavedByObjectVersion
1070
     0
  0
VISUALSTYLE
  5
5F2B
102
{ACAD_REACTORS
330
5F23
102
}
330
5F23
100
AcDbVisualStyle
  2
3D Hidden
 70
     6
 71
     1
 72
     2
 73
     2
 90
        0
 40
-0.6
 41
-30.0
 62
     5
 63
     7
 74
     2
 91
        2
 64
     7
 65
   257
 75
     2
175
     1
 42
40.0
 92
        0
 66
   257
 43
1.0
 76
     1
 77
     6
 78
     2
 67
     7
 79
     3
170
     0
171
     0
290
     0
174
     0
 93
        1
 44
0.0
173
     0
291
     0
 45
0.0
1001
ACAD
1000
AcDbSavedByObjectVersion
1070
     0
1000
AcDbSavedByObjectVersion
1070
     0
1000
AcDbSavedByObjectVersion
1070
     0
1000
AcDbSavedByObjectVersion
1070
     0
1000
AcDbSavedByObjectVersion
1070
     0
  0
VISUALSTYLE
  5
5F2A
102
{ACAD_REACTORS
330
5F23
102
}
330
5F23
100
AcDbVisualStyle
  2
3dWireframe
 70
     5
 71
     0
 72
     2
 73
     0
 90
        0
 40
-0.6
 41
-30.0
 62
     5
 63
     7
 74
     1
 91
        4
 64
     7
 65
   257
 75
     1
175
     1
 42
1.0
 92
        0
 66
   257
 43
1.0
 76
     1
 77
     6
 78
     2
 67
     7
 79
     5
170
     0
171
     0
290
     0
174
     0
 93
        1
 44
0.0
173
     0
291
     0
 45
0.0
1001
ACAD
1000
AcDbSavedByObjectVersion
1070
     0
1000
AcDbSavedByObjectVersion
1070
     0
1000
AcDbSavedByObjectVersion
1070
     0
1000
AcDbSavedByObjectVersion
1070
     0
1000
AcDbSavedByObjectVersion
1070
     0
  0
VISUALSTYLE
  5
5F28
102
{ACAD_REACTORS
330
5F23
102
}
330
5F23
100
AcDbVisualStyle
  2
Basic
 70
     7
 71
     1
 72
     0
 73
     1
 90
        0
 40
-0.6
 41
-30.0
 62
     5
 63
     7
 74
     0
 91
        4
 64
     7
 65
   257
 75
     1
175
     1
 42
1.0
 92
        8
 66
     7
 43
1.0
 76
     1
 77
     6
 78
     2
 67
     7
 79
     5
170
     0
171
     0
290
     0
174
     0
 93
        1
 44
0.0
173
     0
291
     1
 45
0.0
1001
ACAD
1000
AcDbSavedByObjectVersion
1070
     0
1000
AcDbSavedByObjectVersion
1070
     0
1000
AcDbSavedByObjectVersion
1070
     0
1000
AcDbSavedByObjectVersion
1070
     0
1000
AcDbSavedByObjectVersion
1070
     0
  0
VISUALSTYLE
  5
5F2F
102
{ACAD_REACTORS
330
5F23
102
}
330
5F23
100
AcDbVisualStyle
  2
Brighten
 70
    12
 71
     2
 72
     2
 73
     0
 90
        0
 40
-0.6
 41
-30.0
 62
     5
 63
     7
 74
     1
 91
        4
 64
     7
 65
   257
 75
     1
175
     1
 42
1.0
 92
        8
 66
     7
 43
1.0
 76
     1
 77
     6
 78
     2
 67
     7
 79
     5
170
     0
171
     0
290
     0
174
     0
 93
        1
 44
50.0
173
     0
291
     1
 45
0.0
1001
ACAD
1000
AcDbSavedByObjectVersion
1070
     0
1000
AcDbSavedByObjectVersion
1070
     0
1000
AcDbSavedByObjectVersion
1070
     0
1000
AcDbSavedByObjectVersion
1070
     0
1000
AcDbSavedByObjectVersion
1070
     0
  0
VISUALSTYLE
  5
5F33
102
{ACAD_REACTORS
330
5F23
102
}
330
5F23
100
AcDbVisualStyle
  2
ColorChange
 70
    16
 71
     2
 72
     2
 73
     3
 90
        0
 40
-0.6
 41
-30.0
 62
     5
 63
     8
 74
     1
 91
        4
 64
     7
 65
   257
 75
     1
175
     1
 42
1.0
 92
        8
 66
     8
 43
1.0
 76
     1
 77
     6
 78
     2
 67
     7
 79
     5
170
     0
171
     0
290
     0
174
     0
 93
        1
 44
0.0
173
     0
291
     1
 45
0.0
1001
ACAD
1000
AcDbSavedByObjectVersion
1070
     0
1000
AcDbSavedByObjectVersion
1070
     0
1000
AcDbSavedByObjectVersion
1070
     0
1000
AcDbSavedByObjectVersion
1070
     0
1000
AcDbSavedByObjectVersion
1070
     0
  0
VISUALSTYLE
  5
5F2C
102
{ACAD_REACTORS
330
5F23
102
}
330
5F23
100
AcDbVisualStyle
  2
Conceptual
 70
     9
 71
     3
 72
     2
 73
     0
 90
        0
 40
-0.6
 41
-30.0
 62
     5
 63
     7
 74
     2
 91
        2
 64
     7
 65
   257
 75
     1
175
     1
 42
40.0
 92
        8
 66
     7
 43
1.0
 76
     1
 77
     6
 78
     2
 67
     7
 79
     3
170
     0
171
     0
290
     0
174
     0
 93
        1
 44
0.0
173
     0
291
     0
 45
0.0
1001
ACAD
1000
AcDbSavedByObjectVersion
1070
     0
1000
AcDbSavedByObjectVersion
1070
     0
1000
AcDbSavedByObjectVersion
1070
     0
1000
AcDbSavedByObjectVersion
1070
     0
1000
AcDbSavedByObjectVersion
1070
     0
  0
VISUALSTYLE
  5
5F2E
102
{ACAD_REACTORS
330
5F23
102
}
330
5F23
100
AcDbVisualStyle
  2
Dim
 70
    11
 71
     2
 72
     2
 73
     0
 90
        0
 40
-0.6
 41
-30.0
 62
     5
 63
     7
 74
     1
 91
        4
 64
     7
 65
   257
 75
     1
175
     1
 42
1.0
 92
        8
 66
     7
 43
1.0
 76
     1
 77
     6
 78
     2
 67
     7
 79
     5
170
     0
171
     0
290
     0
174
     0
 93
        1
 44
-50.0
173
     0
291
     1
 45
0.0
1001
ACAD
1000
AcDbSavedByObjectVersion
1070
     0
1000
AcDbSavedByObjectVersion
1070
     0
1000
AcDbSavedByObjectVersion
1070
     0
1000
AcDbSavedByObjectVersion
1070
     0
1000
AcDbSavedByObjectVersion
1070
     0
  0
VISUALSTYLE
  5
5F32
102
{ACAD_REACTORS
330
5F23
102
}
330
5F23
100
AcDbVisualStyle
  2
Facepattern
 70
    15
 71
     2
 72
     2
 73
     0
 90
        0
 40
-0.6
 41
-30.0
 62
     5
 63
     7
 74
     1
 91
        4
 64
     7
 65
   257
 75
     1
175
     1
 42
1.0
 92
        8
 66
     7
 43
1.0
 76
     1
 77
     6
 78
     2
 67
     7
 79
     5
170
     0
171
     0
290
     0
174
     0
 93
        1
 44
0.0
173
     0
291
     1
 45
0.0
1001
ACAD
1000
AcDbSavedByObjectVersion
1070
     0
1000
AcDbSavedByObjectVersion
1070
     0
1000
AcDbSavedByObjectVersion
1070
     0
1000
AcDbSavedByObjectVersion
1070
     0
1000
AcDbSavedByObjectVersion
1070
     0
  0
VISUALSTYLE
  5
5F24
102
{ACAD_REACTORS
330
5F23
102
}
330
5F23
100
AcDbVisualStyle
  2
Flat
 70
     0
 71
     2
 72
     1
 73
     1
 90
        2
 40
-0.6
 41
30.0
 62
     5
 63
     7
 74
     0
 91
        4
 64
     7
 65
   257
 75
     1
175
     1
 42
1.0
 92
        8
 66
     7
 43
1.0
 76
     1
 77
     6
 78
     2
 67
     7
 79
     5
170
     0
171
     0
290
     0
174
     0
 93
       13
 44
0.0
173
     0
291
     1
 45
0.0
1001
ACAD
1000
AcDbSavedByObjectVersion
1070
     0
1000
AcDbSavedByObjectVersion
1070
     0
1000
AcDbSavedByObjectVersion
1070
     0
1000
AcDbSavedByObjectVersion
1070
     0
1000
AcDbSavedByObjectVersion
1070
     0
  0
VISUALSTYLE
  5
5F25
102
{ACAD_REACTORS
330
5F23
102
}
330
5F23
100
AcDbVisualStyle
  2
FlatWithEdges
 70
     1
 71
     2
 72
     1
 73
     1
 90
        2
 40
-0.6
 41
30.0
 62
     5
 63
     7
 74
     1
 91
        4
 64
     7
 65
   257
 75
     1
175
     1
 42
1.0
 92
        0
 66
   257
 43
1.0
 76
     1
 77
     6
 78
     2
 67
     7
 79
     5
170
     0
171
     0
290
     0
174
     0
 93
       13
 44
0.0
173
     0
291
     1
 45
0.0
1001
ACAD
1000
AcDbSavedByObjectVersion
1070
     0
1000
AcDbSavedByObjectVersion
1070
     0
1000
AcDbSavedByObjectVersion
1070
     0
1000
AcDbSavedByObjectVersion
1070
     0
1000
AcDbSavedByObjectVersion
1070
     0
  0
VISUALSTYLE
  5
5F26
102
{ACAD_REACTORS
330
5F23
102
}
330
5F23
100
AcDbVisualStyle
  2
Gouraud
 70
     2
 71
     2
 72
     2
 73
     1
 90
        2
 40
-0.6
 41
30.0
 62
     5
 63
     7
 74
     0
 91
        4
 64
     7
 65
   257
 75
     1
175
     1
 42
1.0
 92
        0
 66
     7
 43
1.0
 76
     1
 77
     6
 78
     2
 67
     7
 79
     5
170
     0
171
     0
290
     0
174
     0
 93
       13
 44
0.0
173
     0
291
     1
 45
0.0
1001
ACAD
1000
AcDbSavedByObjectVersion
1070
     0
1000
AcDbSavedByObjectVersion
1070
     0
1000
AcDbSavedByObjectVersion
1070
     0
1000
AcDbSavedByObjectVersion
1070
     0
1000
AcDbSavedByObjectVersion
1070
     0
  0
VISUALSTYLE
  5
5F27
102
{ACAD_REACTORS
330
5F23
102
}
330
5F23
100
AcDbVisualStyle
  2
GouraudWithEdges
 70
     3
 71
     2
 72
     2
 73
     1
 90
        2
 40
-0.6
 41
30.0
 62
     5
 63
     7
 74
     1
 91
        4
 64
     7
 65
   257
 75
     1
175
     1
 42
1.0
 92
        0
 66
   257
 43
1.0
 76
     1
 77
     6
 78
     2
 67
     7
 79
     5
170
     0
171
     0
290
     0
174
     0
 93
       13
 44
0.0
173
     0
291
     1
 45
0.0
1001
ACAD
1000
AcDbSavedByObjectVersion
1070
     0
1000
AcDbSavedByObjectVersion
1070
     0
1000
AcDbSavedByObjectVersion
1070
     0
1000
AcDbSavedByObjectVersion
1070
     0
1000
AcDbSavedByObjectVersion
1070
     0
  0
VISUALSTYLE
  5
5F31
102
{ACAD_REACTORS
330
5F23
102
}
330
5F23
100
AcDbVisualStyle
  2
Linepattern
 70
    14
 71
     2
 72
     2
 73
     0
 90
        0
 40
-0.6
 41
-30.0
 62
     5
 63
     7
 74
     1
 91
        4
 64
     7
 65
   257
 75
     7
175
     7
 42
1.0
 92
        8
 66
     7
 43
1.0
 76
     1
 77
     6
 78
     2
 67
     7
 79
     5
170
     0
171
     0
290
     0
174
     0
 93
        1
 44
0.0
173
     0
291
     1
 45
0.0
1001
ACAD
1000
AcDbSavedByObjectVersion
1070
     0
1000
AcDbSavedByObjectVersion
1070
     0
1000
AcDbSavedByObjectVersion
1070
     0
1000
AcDbSavedByObjectVersion
1070
     0
1000
AcDbSavedByObjectVersion
1070
     0
  0
VISUALSTYLE
  5
5F2D
102
{ACAD_REACTORS
330
5F23
102
}
330
5F23
100
AcDbVisualStyle
  2
Realistic
 70
     8
 71
     2
 72
     2
 73
     0
 90
        0
 40
-0.6
 41
-30.0
 62
     5
 63
     7
 74
     1
 91
        0
 64
     7
 65
   257
 75
     1
175
     1
 42
1.0
 92
        8
 66
     8
 43
1.0
 76
     1
 77
     6
 78
     2
 67
     7
 79
     5
170
     0
171
     0
290
     0
174
     0
 93
       13
 44
0.0
173
     0
291
     0
 45
0.0
1001
ACAD
1000
AcDbSavedByObjectVersion
1070
     0
1000
AcDbSavedByObjectVersion
1070
     0
1000
AcDbSavedByObjectVersion
1070
     0
1000
AcDbSavedByObjectVersion
1070
     0
1000
AcDbSavedByObjectVersion
1070
     0
  0
VISUALSTYLE
  5
5F30
102
{ACAD_REACTORS
330
5F23
102
}
330
5F23
100
AcDbVisualStyle
  2
Thicken
 70
    13
 71
     2
 72
     2
 73
     0
 90
        0
 40
-0.6
 41
-30.0
 62
     5
 63
     7
 74
     1
 91
        4
 64
     7
 65
   257
 75
     1
175
     1
 42
1.0
 92
       12
 66
     7
 43
1.0
 76
     1
 77
     6
 78
     2
 67
     7
 79
     5
170
     0
171
     0
290
     0
174
     0
 93
        1
 44
0.0
173
     0
291
     1
 45
0.0
1001
ACAD
1000
AcDbSavedByObjectVersion
1070
     0
1000
AcDbSavedByObjectVersion
1070
     0
1000
AcDbSavedByObjectVersion
1070
     0
1000
AcDbSavedByObjectVersion
1070
     0
1000
AcDbSavedByObjectVersion
1070
     0
  0
DICTIONARYVAR
  5
6105
102
{ACAD_REACTORS
330
6102
102
}
330
6102
100
DictionaryVariables
280
     0
  1
1:1
  0
DICTIONARYVAR
  5
6104
102
{ACAD_REACTORS
330
6102
102
}
330
6102
100
DictionaryVariables
280
     0
  1
STANDARD
  0
DICTIONARYVAR
  5
6103
102
{ACAD_REACTORS
330
6102
102
}
330
6102
100
DictionaryVariables
280
     0
  1
STANDARD
  0
DICTIONARYVAR
  5
6108
102
{ACAD_REACTORS
330
6102
102
}
330
6102
100
DictionaryVariables
280
     0
  1
1
  0
DICTIONARYVAR
  5
6107
102
{ACAD_REACTORS
330
6102
102
}
330
6102
100
DictionaryVariables
280
     0
  1
0
  0
DICTIONARYVAR
  5
6106
102
{ACAD_REACTORS
330
6102
102
}
330
6102
100
DictionaryVariables
280
     0
  1
127
  0
VLO-VL
  5
60F3
102
{ACAD_REACTORS
330
60F2
102
}
330
60F2
100
vlo_VL
 90
   -64512
 91
       12
 92
        1
 40
2.5
300
(&VLO-R . 0)
  0
DICTIONARY
  5
954F
330
5F71
100
AcDbDictionary
280
     1
281
     1
  3
ACAD_XREC_ROUNDTRIP
360
9550
  0
DICTIONARY
  5
954D
330
5F6D
100
AcDbDictionary
280
     1
281
     1
  3
ACAD_XREC_ROUNDTRIP
360
954E
  0
DICTIONARY
  5
5F14
330
5F13
100
AcDbDictionary
280
     1
281
     1
  3
ACAD_XREC_ROUNDTRIP
360
6F73
  3
BUMPTILE
360
5F16
  3
DIFFUSETILE
360
5F15
  3
OPACITYTILE
360
5F19
  3
REFLECTIONTILE
360
5F18
  3
REFRACTIONTILE
360
5F1A
  3
SPECULARTILE
360
5F17
  0
DICTIONARY
  5
5F0C
330
5F0B
100
AcDbDictionary
280
     1
281
     1
  3
ACAD_XREC_ROUNDTRIP
360
6F72
  3
BUMPTILE
360
5F0E
  3
DIFFUSETILE
360
5F0D
  3
OPACITYTILE
360
5F11
  3
REFLECTIONTILE
360
5F10
  3
REFRACTIONTILE
360
5F12
  3
SPECULARTILE
360
5F0F
  0
DICTIONARY
  5
5F1C
330
5F1B
100
AcDbDictionary
280
     1
281
     1
  3
ACAD_XREC_ROUNDTRIP
360
6F74
  3
BUMPTILE
360
5F1E
  3
DIFFUSETILE
360
5F1D
  3
OPACITYTILE
360
5F21
  3
REFLECTIONTILE
360
5F20
  3
REFRACTIONTILE
360
5F22
  3
SPECULARTILE
360
5F1F
  0
DICTIONARY
  5
6F6E
330
5F66
100
AcDbDictionary
280
     1
281
     1
  3
ACAD_ROUNDTRIP_2008_TABLESTYLE_CELLSTYLEMAP
360
9544
  3
ACAD_XREC_ROUNDTRIP
360
954C
  0
XRECORD
  5
9550
102
{ACAD_REACTORS
330
954F
102
}
330
954F
100
AcDbXrecord
280
     1
102
SHADEPLOT
 70
     0
102
SHADEPLOTRESLEVEL
 70
     2
102
SHADEPLOTCUSTOMDPI
 70
   300
  0
XRECORD
  5
954E
102
{ACAD_REACTORS
330
954D
102
}
330
954D
100
AcDbXrecord
280
     1
102
SHADEPLOT
 70
     0
102
SHADEPLOTRESLEVEL
 70
     2
102
SHADEPLOTCUSTOMDPI
 70
   300
  0
XRECORD
  5
6F73
102
{ACAD_REACTORS
330
5F14
102
}
330
5F14
100
AcDbXrecord
280
     1
102
MATERIAL
148
0.0
149
0.0
149
0.0
 93
        0
 94
      127
282
     0
 72
     0
 77
     0
171
     0
175
     0
179
     0
273
     0
  0
XRECORD
  5
5F16
102
{ACAD_REACTORS
330
5F14
102
}
330
5F14
100
AcDbXrecord
280
     1
270
     1
271
     1
  0
XRECORD
  5
5F15
102
{ACAD_REACTORS
330
5F14
102
}
330
5F14
100
AcDbXrecord
280
     1
270
     1
271
     1
  0
XRECORD
  5
5F19
102
{ACAD_REACTORS
330
5F14
102
}
330
5F14
100
AcDbXrecord
280
     1
270
     1
271
     1
  0
XRECORD
  5
5F18
102
{ACAD_REACTORS
330
5F14
102
}
330
5F14
100
AcDbXrecord
280
     1
270
     1
271
     1
  0
XRECORD
  5
5F1A
102
{ACAD_REACTORS
330
5F14
102
}
330
5F14
100
AcDbXrecord
280
     1
270
     1
271
     1
  0
XRECORD
  5
5F17
102
{ACAD_REACTORS
330
5F14
102
}
330
5F14
100
AcDbXrecord
280
     1
270
     1
271
     1
  0
XRECORD
  5
6F72
102
{ACAD_REACTORS
330
5F0C
102
}
330
5F0C
100
AcDbXrecord
280
     1
102
MATERIAL
148
0.0
149
0.0
149
0.0
 93
        0
 94
      127
282
     0
 72
     0
 77
     0
171
     0
175
     0
179
     0
273
     0
  0
XRECORD
  5
5F0E
102
{ACAD_REACTORS
330
5F0C
102
}
330
5F0C
100
AcDbXrecord
280
     1
270
     1
271
     1
  0
XRECORD
  5
5F0D
102
{ACAD_REACTORS
330
5F0C
102
}
330
5F0C
100
AcDbXrecord
280
     1
270
     1
271
     1
  0
XRECORD
  5
5F11
102
{ACAD_REACTORS
330
5F0C
102
}
330
5F0C
100
AcDbXrecord
280
     1
270
     1
271
     1
  0
XRECORD
  5
5F10
102
{ACAD_REACTORS
330
5F0C
102
}
330
5F0C
100
AcDbXrecord
280
     1
270
     1
271
     1
  0
XRECORD
  5
5F12
102
{ACAD_REACTORS
330
5F0C
102
}
330
5F0C
100
AcDbXrecord
280
     1
270
     1
271
     1
  0
XRECORD
  5
5F0F
102
{ACAD_REACTORS
330
5F0C
102
}
330
5F0C
100
AcDbXrecord
280
     1
270
     1
271
     1
  0
XRECORD
  5
6F74
102
{ACAD_REACTORS
330
5F1C
102
}
330
5F1C
100
AcDbXrecord
280
     1
102
MATERIAL
148
0.0
149
0.0
149
0.0
 93
        0
 94
      127
282
     0
 72
     0
 77
     0
171
     0
175
     0
179
     0
273
     0
  0
XRECORD
  5
5F1E
102
{ACAD_REACTORS
330
5F1C
102
}
330
5F1C
100
AcDbXrecord
280
     1
270
     1
271
     1
  0
XRECORD
  5
5F1D
102
{ACAD_REACTORS
330
5F1C
102
}
330
5F1C
100
AcDbXrecord
280
     1
270
     1
271
     1
  0
XRECORD
  5
5F21
102
{ACAD_REACTORS
330
5F1C
102
}
330
5F1C
100
AcDbXrecord
280
     1
270
     1
271
     1
  0
XRECORD
  5
5F20
102
{ACAD_REACTORS
330
5F1C
102
}
330
5F1C
100
AcDbXrecord
280
     1
270
     1
271
     1
  0
XRECORD
  5
5F22
102
{ACAD_REACTORS
330
5F1C
102
}
330
5F1C
100
AcDbXrecord
280
     1
270
     1
271
     1
  0
XRECORD
  5
5F1F
102
{ACAD_REACTORS
330
5F1C
102
}
330
5F1C
100
AcDbXrecord
280
     1
270
     1
271
     1
  0
CELLSTYLEMAP
  5
9544
102
{ACAD_REACTORS
330
6F6E
102
}
330
6F6E
100
AcDbCellStyleMap
 90
        3
300
CELLSTYLE
  1
TABLEFORMAT_BEGIN
 90
        5
170
     1
 91
        0
 92
    32768
 62
   257
 93
        1
300
CONTENTFORMAT
  1
CONTENTFORMAT_BEGIN
 90
        0
 91
        0
 92
      512
 93
        0
300

 40
0.0
140
1.0
 94
        5
 62
     0
340
5F57
144
0.25
309
CONTENTFORMAT_END
171
     1
301
MARGIN
  1
CELLMARGIN_BEGIN
 40
0.06
 40
0.06
 40
0.06
 40
0.06
 40
0.18
 40
0.18
309
CELLMARGIN_END
 94
        6
 95
        1
302
GRIDFORMAT
  1
GRIDFORMAT_BEGIN
 90
        0
 91
        1
 62
     0
 92
       -2
340
0
 93
        0
 40
0.045
309
GRIDFORMAT_END
 95
        2
302
GRIDFORMAT
  1
GRIDFORMAT_BEGIN
 90
        0
 91
        1
 62
     0
 92
       -2
340
0
 93
        0
 40
0.045
309
GRIDFORMAT_END
 95
        4
302
GRIDFORMAT
  1
GRIDFORMAT_BEGIN
 90
        0
 91
        1
 62
     0
 92
       -2
340
0
 93
        0
 40
0.045
309
GRIDFORMAT_END
 95
        8
302
GRIDFORMAT
  1
GRIDFORMAT_BEGIN
 90
        0
 91
        1
 62
     0
 92
       -2
340
0
 93
        0
 40
0.045
309
GRIDFORMAT_END
 95
       16
302
GRIDFORMAT
  1
GRIDFORMAT_BEGIN
 90
        0
 91
        1
 62
     0
 92
       -2
340
0
 93
        0
 40
0.045
309
GRIDFORMAT_END
 95
       32
302
GRIDFORMAT
  1
GRIDFORMAT_BEGIN
 90
        0
 91
        1
 62
     0
 92
       -2
340
0
 93
        0
 40
0.045
309
GRIDFORMAT_END
309
TABLEFORMAT_END
  1
CELLSTYLE_BEGIN
 90
        1
 91
        1
300
_TITLE
309
CELLSTYLE_END
300
CELLSTYLE
  1
TABLEFORMAT_BEGIN
 90
        5
170
     1
 91
        0
 92
        0
 62
   257
 93
        1
300
CONTENTFORMAT
  1
CONTENTFORMAT_BEGIN
 90
        0
 91
        0
 92
      512
 93
        0
300

 40
0.0
140
1.0
 94
        5
 62
     0
340
5F57
144
0.18
309
CONTENTFORMAT_END
171
     1
301
MARGIN
  1
CELLMARGIN_BEGIN
 40
0.06
 40
0.06
 40
0.06
 40
0.06
 40
0.18
 40
0.18
309
CELLMARGIN_END
 94
        6
 95
        1
302
GRIDFORMAT
  1
GRIDFORMAT_BEGIN
 90
        0
 91
        1
 62
     0
 92
       -2
340
0
 93
        0
 40
0.045
309
GRIDFORMAT_END
 95
        2
302
GRIDFORMAT
  1
GRIDFORMAT_BEGIN
 90
        0
 91
        1
 62
     0
 92
       -2
340
0
 93
        0
 40
0.045
309
GRIDFORMAT_END
 95
        4
302
GRIDFORMAT
  1
GRIDFORMAT_BEGIN
 90
        0
 91
        1
 62
     0
 92
       -2
340
0
 93
        0
 40
0.045
309
GRIDFORMAT_END
 95
        8
302
GRIDFORMAT
  1
GRIDFORMAT_BEGIN
 90
        0
 91
        1
 62
     0
 92
       -2
340
0
 93
        0
 40
0.045
309
GRIDFORMAT_END
 95
       16
302
GRIDFORMAT
  1
GRIDFORMAT_BEGIN
 90
        0
 91
        1
 62
     0
 92
       -2
340
0
 93
        0
 40
0.045
309
GRIDFORMAT_END
 95
       32
302
GRIDFORMAT
  1
GRIDFORMAT_BEGIN
 90
        0
 91
        1
 62
     0
 92
       -2
340
0
 93
        0
 40
0.045
309
GRIDFORMAT_END
309
TABLEFORMAT_END
  1
CELLSTYLE_BEGIN
 90
        2
 91
        1
300
_HEADER
309
CELLSTYLE_END
300
CELLSTYLE
  1
TABLEFORMAT_BEGIN
 90
        5
170
     1
 91
        0
 92
        0
 62
   257
 93
        1
300
CONTENTFORMAT
  1
CONTENTFORMAT_BEGIN
 90
        0
 91
        0
 92
      512
 93
        0
300

 40
0.0
140
1.0
 94
        2
 62
     0
340
5F57
144
0.18
309
CONTENTFORMAT_END
171
     1
301
MARGIN
  1
CELLMARGIN_BEGIN
 40
0.06
 40
0.06
 40
0.06
 40
0.06
 40
0.18
 40
0.18
309
CELLMARGIN_END
 94
        6
 95
        1
302
GRIDFORMAT
  1
GRIDFORMAT_BEGIN
 90
        0
 91
        1
 62
     0
 92
       -2
340
0
 93
        0
 40
0.045
309
GRIDFORMAT_END
 95
        2
302
GRIDFORMAT
  1
GRIDFORMAT_BEGIN
 90
        0
 91
        1
 62
     0
 92
       -2
340
0
 93
        0
 40
0.045
309
GRIDFORMAT_END
 95
        4
302
GRIDFORMAT
  1
GRIDFORMAT_BEGIN
 90
        0
 91
        1
 62
     0
 92
       -2
340
0
 93
        0
 40
0.045
309
GRIDFORMAT_END
 95
        8
302
GRIDFORMAT
  1
GRIDFORMAT_BEGIN
 90
        0
 91
        1
 62
     0
 92
       -2
340
0
 93
        0
 40
0.045
309
GRIDFORMAT_END
 95
       16
302
GRIDFORMAT
  1
GRIDFORMAT_BEGIN
 90
        0
 91
        1
 62
     0
 92
       -2
340
0
 93
        0
 40
0.045
309
GRIDFORMAT_END
 95
       32
302
GRIDFORMAT
  1
GRIDFORMAT_BEGIN
 90
        0
 91
        1
 62
     0
 92
       -2
340
0
 93
        0
 40
0.045
309
GRIDFORMAT_END
309
TABLEFORMAT_END
  1
CELLSTYLE_BEGIN
 90
        3
 91
        2
300
_DATA
309
CELLSTYLE_END
  0
XRECORD
  5
954C
102
{ACAD_REACTORS
330
6F6E
102
}
330
6F6E
100
AcDbXrecord
280
     1
102
ACAD_ROUNDTRIP_PRE2007_TABLESTYLE
 90
      512
 91
        0
  1

 92
      512
 93
        0
  2

 94
      512
 95
        0
  3

  0
ENDSEC
  0
EOF
